&title=White Promise
&artist=Nayugorou
&first=0.05
&des=L-Happy:R-Sad
&lv_5=13+
&inote_5=(180)
{4}
,,
{8}
E7,B6,B5,E5/3hx[4:1],,
{8}
4,3h[4:1],,5q8[2:1],3,,E3,E2,
,1bx,,
{8}
6/3h[2:1],5,,7,6,5,3h[4:1],,6qq1[3:1],6,,2,2,,3/7h[4:1],,
{8}
4h[8:1],6,4h[8:1],6,4h[8:1],5,6,4h[8:1],7,
{16}
4,7,4h[4:1],,
{8}
6h[8:1],,6h[8:1],3,6h[8:1],4,6h[8:1],4,6h[8:1],5,6h[8:1],4,7h[8:1],
{16}
3,6,4,6,4qq1[2:1],5,4,5,4,,5,,6,,7,,8bp4-6[2:1],,,,,,,,E2/B1/B2,,,,
{8}
,1,2-5[8:1],8,7-4[8:1]/2,8,7,1,1pp5[2:1]/8,7,1,,,,8,7,6/2,5,1h[4:1]/4,,,1,8,,1-5[4:1]/7,,5-7-3[3:1]/1,,,8bx,,
{8}
8pp4[2:1],7,6/8x,6,,6h[4:1],,3h[2:1],2,4,5,6b,,
{8}
5/B3/B2,,4/B7/E8,,5/B1/E2/B2,,5x/4x,3x/4x,2x/3x,1x/8x,7x/6x,4x/5x,3xb/4xb,3xb/4xb,,,
{8}
6h[1:1]/E4,E3,B4,B2,E1,B1,B2,B3,4hx[1:1],A6,D7,A7,E8,,8h[1:1],,,3,,2,1h[2:1],,,,6,,6h[2:1]/2,,,
{8}
3,3,,4h[8:1]/5<7-1[4:1],5,,,,
{8}
3,2,3,4/2h[4:1],,
{8}
8-5[8:1],8,1-4[8:1],1,8-3[8:1],8,1-5[8:1],1,
{8}
8,7,6,,
{64}
4,5,,,,,,,,,,,,,,,
{8}
,3/5,,6b/2b,B2/B6,,
{8}
3,5,3-8[7:1],6,7-4[7:1],7,7,1-5[7:1],
{8}
1,1x-3[8:1],8,1pp5[2:1],7,1,6,7,8,8,3,3/8,7,6/4h[4:1],5,5h[2:1],1,2,3>8>3[2:1],,3/5,6,7-3[8:1],,7-4[8:1],2,2-5[8:1]/7,2,8-4[8:1],8,1-5b[8:1],1,7-3[8:1],7,2-6b[8:1],2,8<8[1:1],8,8b,,B6,,B5,,B4,,B3,,B2/E2,,
{8}
8x/3x,
{16}
1,2,1h[2:1],,2,,3<6-2<7[1:1],,3,,3,,,,,,,,,,
,,
{8}
6,6h[2:1],,5,4,,3h[2:1],,4,5,6h[2:1],,
{8}
5,4,3,,2/7,1/8,1h[4:1]/8h[4:1],,,,8/2,7,6/1,2/5,3b/4h[4:1],,,2,5/2,1,7qq4[2:1],2,7/2,3,3,,3,3,4/5,6,
{16}
7,2,7,2,8-4[8:1],,
{16}
2,,8/2-6[8:1],,2,,
{8}
8>8[2:1],,8x,,1,2,3,4,5h[2:1]/1-5-1[2:1],,,,,,
{8}
4,3,
{16}
2,1,2,8,3,,7h[4:1],,4h[8:1],,,,
{8}
6h[4:1],3,
{16}
3,5,4,6,3bx,,
{8}
3x/5x,3x/5x,6,2/6,3/5,4,3/2,1h[4:1]/8,7,6,5,4b/3b,
{16}
2,5,2,5,1,,8,7,8,6,1,5,2,4,3,4,3,5,2,,6b/1x,,7,8,7,1,6,,1,2,1,2,8,3,7b,,4,3,4,,2b/5b,,8,7,8,6,1,,
{8}
1,
{8}
2h[16:1],3h[16:1],4h[16:1],5h[16:1],6h[16:1],7h[16:1],8h[4:1],,,
{8}
,1-3[8:1],6,1-5[8:1],4,1-3[8:1],6,1-5[8:1],4,1-3[8:1],6,7/1b,8,
{16}
7b,,7,8,7,8,6b,,
{8}
6-8[8:1],1,6-3[8:1],2,6-1[8:1],2,6>6[2:1],3,6,,,,
{8}
3-1-7[4:1],6,6h[4:1],,,5,4-2-8[4:1],6,4x/7x-4b[8:1],,7b,,8,1,2-8-4[4:1],2/6h[4:1],,,,
{8}
8-6[8:1],1-5[8:1],8-4[8:1],1-3[8:1],8,1,,
{8}
6h[4:1]/5,4,3h[4:1],4,5,6b/3b,,
{16}
4,5,4-1[8:1],5,3b,,
{8}
4-8[8:1],6,4,5,6x/1xb,
{16}
2h[4:1],,
{8}
8,7,6-2-4-6b[2:1],2,6/2,1h[4:1],,,2h[4:1],8,7,6h[4:1],5,4,3h[8:1],,2/4h[4:1],,1,7,3h[4:1],5b,,
{8}
4-8b[8:1]/3,5,4b/6,,
{8}
7/1-5b[8:1],2,3/1b,,
{8}
6/4-8b[8:1],5,4bx/2,,
{8}
E2,A7,B2,E7,B3,E6f,,
{8}
E2h[4:1],B2/B1,,E6h[4:1]/B5/B6,,,E4h[4:1],B3/B4,,E8h[4:1],A8/A7,,Ch[4:1],,B2/B3/B6/B7,
E
