&title=不乱不破
&artist=Reol
&first=0
&des=舞之忍者-S74390E2
&lv_5=13+
&inote_5=(110)
{4},,,,
{4},,,,
{16}Ch[4:14]/B2/B3
,,,,,,,,,,,,,,,,
{16},,,,,,,,,,,,,,,,
{16},,,,,,,,3h[4:1],,,,,,,,
{16}2h[4:1],,,,,,,,1,,,,{32}1-5[16:1],2,3,4,5,6,7,8,
{16}1b<1<1s5[4:10]/Cf,,,,,,,,,,8,,7h[4:1],,,,
{16},,7,,6h[4:1],,,,,,7x,,8h[4:4],,,,
{16},,,,,,,,,,,,,,,,
{16}1bx-4[12:1]*-6[12:1],,,,1,,,,28,2,3,3,4-8[12:1],4,5,5,
{16}4>1[12:1]*<7[12:1],,,,4,,,,1>5[8:1]*<5[8:1],,,,1,,,,
{16}3/7-4[12:1],,8,1,7,,2,2h[8:1],,5,5h[8:1],,3,,2,,
{16}8-4[12:1],8,2>5[12:1],2,8,,2,,6v1[12:1],6,3v6[12:1],3,6,,3,,
{16}7-4[12:1]*v5[12:1],,28,,7,,,,1>4[12:1]/7,,2/6<1[12:1],,1,,6b,,
{16}2h[16:3],,,1,2,,3,,4/6h[8:1],,5,6,,5h[16:3]/7,,,
{16}8h[16:3],,,6,8,,5,,3/4h[8:1],,2,1,,3h[16:3]/8,,,
{16}7h[16:3],,,8,7<4[16:1],,8/1>4[16:1],,8x/7bx-3[16:1],,1bx-5[16:1]/8x,,8x/7bx,,1bx/8x,,
{16}8,1,8,7,8,2,8,6,8-4[16:1],,4,,8bV26-4[4:2]/2h[4:3],,,,
{16},,,,,,,,,,,,C,,,,
{32}8-3[12:1],,,,,,,,8-5[12:1]/2,,,,,,,,86,,,,,,,,7xhb[4:1]/1xhb[8:1],,,,,,,,
{48}1,2x,3x,4x,,,,,,E5,,,,,,4,,,,,,34,,,,,,2,,,1,,,,,,2h[4:1]/8h[8:1],,,,,,,,,,,,
{48}8,7x,6x,5x,,,,,,E5,,,,,,5,,,,,,56,,,,,,7,,,8,,,,,,1h[8:1]/7h[4:1],,,,,,,,,,,,
{48}1,2x,3x,4x,,,,,,C,,,,,,4,,,,,,34,,,,,,2,,,1,,,,,,2h[16:1]/8h[16:2],,,,,,,,,,,,
{16}1-5[12:1],,3h[8:1],,1,,E4,,8-4[12:1],,6h[8:1],,8,,,,
{48}17,6,5,4,,,,,,E4/E3,,,,,,5,,,,,,56,,,,,,7,,,8,,,,,,2h[8:1]/8h[4:1],,,,,,,,,,,,
{48}2,3,4,5,,,,,,E6/E7,,,,,,4,,,,,,34,,,,,,2,,,1,,,,,,1h[4:1]/7h[8:1],,,,,,,,,,,,
{48}7,6,5,4,,,,,,B4/B5,,,,,,5,,,,,,56,,,,,,7,,,8,,,,,,2h[8:1]/8h[16:1],,,,,,,,,,,,
{16}8-4[12:1],,6h[8:1],,8,,,,7-3[12:1],,,,1-4[12:1]*-6[12:1],,,,
{16}1b<3[4:4],,,,,,,,,,,,,,,,
{16}7,,7,,6,,6,,5,,5,,{32}34,5,6,7,8,1,2,3,
{16}4b/C,,,,5/7h[4:1],,,,4,5,3,,2h[4:2],,3,,
{16}4,,5,,6h[4:1],,,,4,5,3,4,{32}2x,3,4,5,6,7,8,1,
{16}2/4V62[16:3],,,,6,,7,,8-4[12:1],,6,4,8,,2,,
{16}1,8,2,8,1h[8:1],,7-4[12:1],,6,5,7,,2h[8:1],,,,
{16}5h[8:1]/3-5[12:1],,,5,5-1[12:1],,6,,57,,6,5,7,,64,,
{16}3h[8:1]/5-3[12:1],,,3,3-7[12:1],,2,,31,,1,8,2,,13,,
{16}5h[8:1]/3h[16:3],,,5,3[8:1],,5,4,6-1[12:1],,2/8,,46,,,,
{16}3h[16:3],,,4,,3,,5-1[16:5],,,,,6h[2:1],,,,
{16},,,,E1,,,,E4/5,,E3,,,,,,
{16}6,,,,E1,,,,E7/7,,B5,,,,,,
{16}8,,,,E1,,,,E3/1,,B4,,,,,,
{16}2,,,,E1,,,,E6/3,,E7,,{64}E2,B1,B8,,,,,,,,,,,,,,
{16}4,,4,,5/3h[8:1],,5,,6/B2,,6/B1,,7,,7,,
{16}8,,8,,1/7h[8:1],,1,,2/B6,,2/B5,,3,,3,,
{16}4,4,5,5,6x,6x,7x,7x,8x,8,1x,1,2,2,3,3,
{16}4,5,6,7,8x,1x,2x,3x,4x/C,,,,2b/6b,,,,
{32}1x/6h[8:5],2x,3x,4x,5x,,7x,8x,1x,2x,3x,4x,5x,,7x,8x,1x,2x,3x,4x,5x,,7x,8x,1x/7h[8:3],2x,3x,4x,5x,6x,,8x,
{32}1x,2x,3x,4x,5x,6x,,8x,1x/6h[8:3],2x,3x,4x,5x,,7x,8x,1x,2x,3x,4x,5x,,7x,8x,1x/5h[4:1],2x,3x,4x,,6x,7x,8x,
{32}1xq7b[8:1],2x,3x,4x,{16}5x,,1/2h[8:1],,,2,,3,4,,4/5-2[12:1],,56,,
{16}B7,,,,7h[16:3]/8h[8:1],,,8,,6,5,,4h[8:1]/7h[8:1],,,,
{32}8x/3h[8:5],7x,6x,5x,4x,,2x,1x,8x,7x,6x,5x,4x,,2x,1x,8x,7x,6x,5x,4x,,2x,1x,8x/2h[8:3],7x,6x,5x,4x,3x,,1x,
{32}8x,7x,6x,5x,4x,3x,,1x,8x/3h[8:3],7x,6x,5x,4x,,2x,1x,8x,7x,6x,5x,4x,,2x,1x,8x/4h[4:1],7x,6x,5x,,3x,2x,1x,
{32}8xpp2b[12:1],7x,6x,5x,{16}4x,,7h[8:1]/8,,,7,,6,5,,5/4-8[12:1],,43,,
{16}E3,,,,2,2-5-3[8:1]/1,,38,,2,1,,8,,7,,
{16}6,6,5,5,4,4,3,3,{32}1,8,7,6,1,2,3,4,{16}1b-5[12:1],,,,
{48}1/Cf,2,3,4,,,,,,4,,,,,,4,,,,,,34,,,,,,2,,,1,,,,,,7h[8:1]/8-4[12:1],,,,,,,,,,,,
{48}8/Cf,7,6,5,,,,,,5,,,,,,5,,,,,,56,,,,,,7,,,8,,,,,,2h[8:1]/1-5[12:1],,,,,,,,,,,,
{48}1/Cf,2,3,4,,,,,,4,,,,,,4,,,,,,34,,,,,,2,,,1,,,,,,8h[8:1]/3h[16:1],,,,,,,,,,,,
{16}1-6[12:1]/7,,2/6-2[12:1],,1/7h[8:1],,,,5-8[12:1],,6,,5/3b>8[12:1],,,,
{48}7b/A3f,6,5,4,,,,,,B1/B2,,,,,,5,,,,,,57,,,,,,7,,,8,,,,,,1h[8:1]/6<1[12:1],,,,,,,,,,,,
{48}2b/A6f,3,4,5,,,,,,B7/B8,,,,,,4,,,,,,24,,,,,,2,,,1,,,,,,8h[8:1]/3>8[12:1],,,,,,,,,,,,
{48}7b/A3f,6,5,4,,,,,,B1/B2,,,,,,5,,,,,,57,,,,,,7,,,8,,,,,,1h[8:1]/6h[16:1],,,,,,,,,,,,
{32}2/8-4[12:1],,,,4-8[12:1]/6,,,,28,,,,,,,,1-5[12:1],,,,,,,,1,,,,,,,,
{32}1,2-6[16:1]/8-4[16:1],37,4s8[12:1]/6s2[12:1],,,,,,,,,,,,,
