&title=リフィクションO
&artist=sasakureUK
&first=-0.41
&lv_5=14+
&des_5=リフィクションZOU
&inote_5=
(244){4},{8},,,,,,7h[8:1]/4h[4:1],
,,6h[8:1]/3h[4:1],,,{4}5h[8:1]/2h[4:1],
{8},4h[4:1]/1h[8:1],,,5h[4:1]/2h[8:1],,,6h[4:1]/3h[8:1],
,,{4}7h[4:1]/4h[8:1],{8},5h[8:15]/8b<1[4:7],{1},,{12}4h[12:1],
,8h[12:1],
,3h[12:1],,6h[12:1],,4h[12:1],,7h[12:1],{24},,{8}3,4,
2,8h[4:1],,3,,6v8[4:1],,4,
,2-4[8:1],,1b,,,8,3,
6h[8:1],4h[4:1],,7-4[8:1],,3,,2,
5,3,6,4,7,1h[4:1],,6,
,3v1[4:1],,5,,7-5[8:1],,8b,
,,1,6,3h[8:1],5,,2h[4:1],
,4,2,5,3,6h[8:1],2,2,
5,3,,7,,1-5[8:1],,8-6[8:1],
,2-4[8:1],,1b,,8,4,7,
3,6,,2-5[8:1],,8,,7<4[8:1],
5,7,,3,3,6h[4:1],,2h[4:1],
,7-5[8:1],,1-3[8:1],,8-4[8:1],,1b,
,2,2,6,6,4,4,7h[8:7],
{16}E1,E8,E7,E6,E5,E4,E3,E2,E1,E8,E7,E6,{4}E5,
{1}6xh[4:7]/3xh[4:7],
,4h[4:7]/7h[4:7],
,1h[4:3]/2h[4:3],
7h[4:3]/8h[4:3],
{8}6,1,{4}6h[4:1],{8}4,4h[4:1],,5h[8:9],
,3h[8:7],,,,,,,,2,
2,6,4,7,2,8/1,
,2/4,,7/5,,2/6,,5/3,
5h[4:1]/3h[4:1],,,6/4,,,{4}4/6,
{1}1h[4:3]/8h[4:3],
{4}4/5h[4:1],B2,3/4h[4:1],{8}C,5,
4h[8:1],6,,4,{4}6,6,
5/4h[4:1],C,6/5h[4:1],{8}B7,4,
5,4,6,3,4,3,{4}6,
5/4h[4:1],C,6/5h[4:1],{8}B7,3,
5,3h[4:1],,4,{4}2,4/3,
4/5h[4:1],C,3/4h[4:1],{8}C,6,
4,6,5,7,5,7,{4}4,
8-6[8:1],8b,{8}4,4,,3-1[8:1],
6,6,,7,{4}7-5[8:1],2,
1-7[8:1],4,{8}5,5,,2-4[8:1],
,5,,6,6,4,{4}7,
8-6[8:1],8,{8}4,4,,3-1[8:1],
6,6,,7,{4}7-5[8:1],2,
{8}3,4,3,5,2,2,6,6,
{16}1,2,3,4,8,7,6,5,8-4[8:1],1,2,3,{4}8,
{8}3,6,2,6,,7<4[8:1],,1,
,2>5[8:1],,7,{4}7,{8}8,2,
7,2>5[8:1],,6,,8h[8:3],{16},,4-6[16:3],3V57[4:1],
{2}2h[4:1],{8}2,2,8,8,
,2>5[8:1],,8,,7<4[8:1],,2,
{4}2,{8}1,7,2,7<4[8:1],,2,
,1h[8:3],{16},,5-3[16:3],6V42[4:1],{2}7h[4:1],
{8}8,8,2,2,,7<4[8:1],,1,
,2>5[8:1],,7,{4}7,{8}8,2,
6,3h[4:1],,7h[4:1],,5h[8:3],{16},,3,2,
1-5[8:1],8,7,6,,,,,{8}7h[4:1],,,5h[4:1]/3h[4:1],
,,{4}4h[4:1]/2h[4:1],{8},3h[4:1]/5h[4:1],,,4h[4:1]/6h[4:1],
,,5h[#2.827873]/7bp6>7[0.2459##2.582],{1},{4},{16},,,,
{1},{4},,{6}4/6xh[12:1],
3/5xh[12:1],2/4xh[12:1],
3/6xh[12:1],2/5xh[12:1],1/4xh[6:1],{24}8,,,8-3[8:1],,,,,,{8}8-5[8:1],
,8>5[2:1],,8,,5<1[8:3],,1,
,5,,6b,6h[8:3],4,,3-1[8:1],
,7-4[8:1],{16},,8,1,2,3,5-2[8:1],6,7,8-4[16:3],,,,,{8}8,
,2,2,5-8[8:1],,5-2[8:1],
,5,,1-4[8:1]*-6[8:1],,1b,,7,
7,2h[8:1]/8h[8:1],,,3/6,4,5,2x-5[8:1]/7x-4[8:1],
,7b/2b,,1h[8:3],,7,{4}7h[4:1],
{24}8-4[8:1],1,2,3,{6}4,{24},,,,{8}3,3,6,6h[4:1],
,8>3[4:1],,3<6b[4:1],,6<1[4:1],,2,
,5b,,3,3h[8:3],7,,8-6[8:1],
,2-4[8:1],{16},,5,6,7,8-4[8:1],5,4,3,2-6[8:1],,,,,,,,,{8}7,
7,5-2[8:1],,5-8[8:1],
,5,,1-4[8:1]*-6[8:1],,1b,,7,
7,1h[8:3],,,6,3,5,2/7,
,8/1,8/1,7/2-5[8:1],,2/8-4[8:1],,8/1-5[8:1],
,1/7v4[8:1],,7/3b>3[4:15],{1},,,,{8}6h[4:1]/5h[4:1],
,,6h[4:1]/5h[4:1],
,,{4}7h[4:1]/4h[4:1],{8},6h[8:1]/3h[8:1],,6h[4:1]/3h[4:1],
,,{4}5h[4:1]/4h[4:1],{8},3h[8:1],{4}6h[8:1],
{8}3h[8:1],5h[24:5],{24}1b,2,{6}3h[6:1],7h[6:1],4h[6:1],6h[6:1],
2h[6:1],5h[6:1],3h[6:1],{24}7-5[8:1],,,4,,,{8}7,3,
,2,8,2,7,3v8[8:1],4,3,
6,6h[8:3],{16},,,,2,3,4,5,8,7,6,5h[16:3],
{4}1,{16}2,3,4,5,1,8,7,6,{8}1/5,2,
3,7,6,5h[8:1],2,4,{4}3h[8:1],
{16}5,6,7,8,4,3,2,1,{8}7,7,{16}2,3,{8}4,
8h[8:1],{16}6,5,{8}4,1,3,7,8,5,
2,7,{4}4h[4:1],{8}7-4[8:1],1,7,2v5[8:1],
8,2,,8,8,3,3,7,
7,1h[8:1],{4}6h[8:5],,2-4[16:1],
{16}8,7,6,5,1,2,3,4,8,1,2,3,4,5/1,6/2,7/3,
{8}8/4,1-5[8:1],3,1,8-4[8:1],6,8,1,
3,{32}1,B1,C,B5,{8}A5,8,6,{32}8,B8,C,B4,{8}A4,6h[8:1],
3h[8:1],7h[8:1],4h[8:1],8h[8:1],{4}2h[8:1],{16}7,6,5,4,
1,2,3,4,8,7,6,5,3,2,1,8,{8}7x,7x-5[8:1],
,1-3[8:1],,7-3[8:1],,1-5[8:1],,8w4[8:1],
,8b,,,2v5[8:1],6-1[8:1],2x,6x,
,8<5[8:1]/4>1[8:1],,8/4,,8-4[8:1],4,8,
,,6,7-5[8:1],,1-3[8:1],,7-3[8:1],
,1-5[8:1],,8w4[8:1],,8b,,,2v5[8:1],
6-1[8:1],2x,6x,,8<5[8:1]/4>1[8:1],,4/8,
,8-4[8:1],4,8,,,7,8-5[8:1],
,2-5[8:1],,6-1[8:1],,3-6[8:1],,8w4[8:1],
,8b,,,2v5[8:1],6-1[8:1],2x,6x,
,4-1[8:1]/8-5[8:1],,8/4,,8-4[8:1],4,8,
,,2,1-4[8:1],,7-4[8:1],,2-7[8:1],
,6-3[8:1],,8w4[8:1],,8b,,,3h[8:1],
5h[8:1],{4}2h[8:1],{6}7h[12:1]/1h[12:1],6h[12:1]/2h[12:1],5h[12:1]/3h[12:1],
8h[12:1]/2h[12:1],7h[12:1]/3h[12:1],6h[12:1]/4h[12:1],{24}5h[8:1],,,1bv6-8-3-5[4:7],{1},,{16},{48},{4}6-4v7-1-3[4:7],
,,,,,,,4-2v8-5-3[8:13],
{1},{4},,,{64}2b-4-6-8-2-4-6-8-2[0.8607##0.9836],
1b-3-5-7-1-3-5-7-1b[0.8607##0.9836],{4},,,{16},{32},{16}A2,
A3,A4,A5,A6,A7,
A8,A1,A2,A3,A4,A5,A6,A7,A8,A1,{8}A2,7x,8-5b[8:1],
,8-3b[8:1],,8<3b[2:1],,8,,3>7b[4:1],
,7,,2,,6b,6h[8:3],4,
,3-1[8:1],,5-7[8:1],{16},,8,1,2,3,4,5,
6,7,8-4[8:1],5/1,6/2,7/3,{8}4/8`C,,2,2,5-8b[8:1],
,5-2b[8:1],,5,,1-4b[8:1]*-6b[8:1],,1b,
,7/2,7/2,1/8h[4:1],,,5,4,
6/3,7x-4[8:1]/2x-5[8:1],,2/7,,8h[8:3],,4,
{4}4,{24}4b/8b,3/7,2/6,1/5,,,,,,{8}6/1,6/1,{16}8,7,
{8}8,6/1,{16}8,7,{8}8,{16}7/1,6h/2h,{8}3/5,8b,{16}1,2,
{8}1,3/8,{16}1,2,{8}1,{16}2/8,7h/3h,{8}6/4,8/2,8/2-6[8:1],
,2/7-1[0.2459##0.123],,7/2-4[8:1],,2/6,,7-5[8:1]/1-5[8:1],
,1-3[8:1]/7-3[8:1],,7/1,,4,5,6/2h[4:1],
,8<5b[4:1],,5>2[4:1],,2<7b[4:1],,5,
,4,6/3,5h[4:1]/2h[4:1],,,3/6,{16}4,5,
{8}4,2/6,{16},,1,8,1,8,{8}7/2-5b[8:1],,2/8-4b[8:1],
,8/1-5b[8:1],,1/7v4b[8:1],,7/3b>3[8:25]*<3b[8:25],{1},,,{4},,{8}7v4[8:1],
1,7,2v5[8:1],8,2,
7-4[8:1],8,7,2-5[8:1],1,2,8,8h[8:1],
2x,8,{32}2,E3,B3,B4,{8}7x,1,{32}7,E7,B6,B5,{8}2x,1,
{32}2,E3,B3,B4,{8}7x,8,{32}7,E7,B6,B5,{8}1,1,7,1,
{32}7x,6x,{16}5x,{8}2,8,{32}2x,3x,{16}4x,{8}7,8,{32}7x,6x,{16}5x,{8}2,
1,{32}2x,3x,{16}4x,{8}8,8,7,1,{32}7,6,{16}5,{8}2,
8,{32}2,3,{16}4,{8}7,8,{32}7,6,{16}5,{8}2,1,{32}2,3,{16}4,
{8}8,8h[8:1],4h[8:1],6,6,3h[8:1],5,5,
2h[8:1],4,4,1h[8:1],3,3,{16}8,7,6,5,
4,3,2/7,6,5,4,8/3,7,6,5,4/8,3/7,2/6,1/5,{8}8bh[8:43]/4bh[8:43],
E
&lv_7=1
&des_7=
&inote_7=
(244){4},
E
