&title=Empty Backdoor
&artist=森羅万象
&first=0
&des=DJ Laccb
&lv_5=13
&inote_5=(169){4},{8},,,,,,2pp5[4:3]/6pp5[8:3],
,,,,,,6,
,7,,8pp5[8:9],,2h[8:11],,,,,,,,,,,{4}4pp7[2:1],
,,1,
{8}2qq5[4:3]/7<5[8:3],,,,,,,6,
,7,,8,1,2/8<4[8:7],,8/1h[8:9],
,,,,,,,,{4}3V57[2:1],
,,3,
8/4v1[8:1],7h[2:1],2,{8}3,4h[4:1],
,2<5[16:5],,2,,3,{4}1h[4:1],
{8}4,5,5,2,6,5,4,3,
2h[4:1],5,6,6,3,4,5,6,
{4}5/7-5[8:1],{8}4,3,{4}5/2-4[8:1],{8}6,7h[4:1],
,5,8,1q5[4:1],{2}2h[2:1],
{1}6bx,
{8},,,1,{4}4/2V46[8:1],{8}2,7,
1/8b-6[8:1],{16}2,2,{8}8,3h[8:1],5,{16}4h,3,{8}5,{16}4h,2,
{8}6-1[8:1],{16}3,3,{8}6,2,{4}1-4[12:1]*-6[12:1],1,
{8}1x/2x-4[8:1],{16}8,8,{8}2,7h[8:1],4,{16}5h,6,{8}4,{16}5h,6,
3,4,3,4,2,5,2,5,3-6-3[8:1],6,3,6,{4}3b,
{8}7-4[8:1],8,1,2,3/4,2,{16}5,4,{8}6,
2-5[8:1],1,8,7,6/5,3,{16}7,8,{8}7,
1-4[8:1],6,5,5,4/6,3,{16}5,2,5,2,
{24}E6,B6,B7,E8,,,{8}1,1,{16}2,3,4,5,8,7,6,5,
{4}2-8[8:1],2/4,{8},6,7/1,2,
{16}3h[16:3],,,4h[16:3],,,{8}5-2[8:1],,5,6,7,
{16}8qq5[4:1],,,2,{8}8,3h[4:1],,,4,5,
{16}7-3[8:1],,,4,{8}7,5h[16:5],{16}2,,,1,,,{8}8/B4/E4,
{4}Ch[4:1],{16}6b,,,7,{8}5h[8:1],6,4/5,3,
2,2,{16}8b,1,8,2,,4,{8}5,6,3,
2>4[8:1],4,5,6,{4}7h[4:1],{8}5,3h[4:1],
1,8,7,6h[8:3]/4>1[16:3],,,,,{4}8/7,
6p4[4:1],{8},3,{4}2,
1V35[4:1],5,7,5/8,
3/6,2q4[4:1],{8},5,{4}6,
7V53[4:1],4,{8}2,1p6[4:1]*q4[4:1],,1b,
,,7,8h[8:3],3,4,5>2[8:1],7,
{16}5,,,6,,5,{8}2-4[8:1],4,2/5,,7,
8v5[8:1],3,8,{16}2,2,,,{8}6,5,4,
{4}3-8[8:1],4/3b,1-6[8:1],2/1b,
4,4,{8}4,5,4,6,
{4}4,4,{8}4,6,4,7,
{4}4,4,{8}4,8,4,7,
{4}3h[4:1],{8}4,6h[2:1],{16}2bx,,,2x,,,{8}2x,
{4}5,5,{8}5,3,5,2,
{4}5,5,{8}5,2,{4}5/1h[8:1],
{16}3b/4,,,2b/1,,,{8}3b/4,{4}6,{16}8/7b,,,6b/5,
,,{8}4/3b,{4}1h[4:3],6,8h[4:1],
{8},,,3,{4}4/5,{8}6-2[1.7751##0.1775],7h[8:7]/3h[8:7],
,,,,,,,,{4}2-4[16:1]/6b-8[16:1],
6/2,3/1-5[8:1],{8}1/8,7-3[8:1],
,7/5-2[8:1],,5p5[8:1],,1b,,8,
{4}6/1-5[8:1],7q3[8:1]/1p5[8:1],7/1,{8}4,2h[2:1],
,8,,6,5/2-8[8:1],3,{4}2b/7,
{16}6-1[8:1],2,6,2,{4}6/3x-6[8:1],3/7-4[8:1],{8}7/1>4[8:1],8,
,7<3[8:1],,7h[4:1],,2b,,6,
5/3>6[8:1],,,5s1b[8:1],{16},,,,,,,,1/5,
,,1/5,,,{8}1/5,{32}2,3,4,5,6,7,8,1,{4}2b/6b,
4z8[16:1]/5s1[16:1],5/4,{8}2-4[8:1],7-1[8:1],{4}2-6[8:1],
{8}2,8,7,6,3h[8:1],5h[8:1],4h[8:1],6h[8:1],
5-1[8:1],5,5/7-2[8:1],7,7/3-6[8:1],3,3/8-4[8:1],8,
{4}8b/1-3[8:1],1-5[8:1],1b/8-6[8:1],8,
{16}5/6h[4:1],4,3,2,{8}1-5[8:1],8-4[8:1],1-3[8:1],8,1,4b,
{16}4/3h[4:1],5,6,7,{8}8-4[8:1],1-5[8:1],8-6[8:1],1,8,4b,
{16}3,2,1,8,{8}7-2[16:1],7,{16}6,5,4,3,{8}2-7[16:1],2,
{4}2/6-3[16:1],6/1-4[16:1],1/5-8[16:1],5/4>5[1:1],
{1}4b/Ch[1:1]
,
{4},1/8,{8},,,,,,,8,
{4}5/7V53[8:1],{8}7,2,
8/1b-3[8:1],{16}7,7,{8}1,6h[8:1],4,{16}5h,6,{8}4,{16}5h,7,
{8}3-8[8:1],{16}6,6,{8}3,7,8-5[12:1]*-3[12:1],1/7,{4}8,
{8}8x/7x-5[8:1],{16}1,1,{8}7,2h[8:1],5,{16}4h,3,{8}5,{16}4h,3,
6h,2,6h,2,7h,1,7h,1,8-4[16:1],7,6,5,{4}4,
{8}2>5[8:1],1,8,7,6/5,7,{16}4,5,{8}3,
7<4[8:1],8,1,2,3/4,6,{16}2,1,{8}2,
8v5[8:1],3,4,4,5/3,6
,{16}4,7,{8}4,
1b/8,2,1/8b,7,{16}2b,5,4,5,7b,5,4,5,
{1}4bp1[4:3],
8p5[4:3],
E
