&title=Believe the INSANITY (PP, LK, raputa, tunagite)
&wholebpm=150
&artist=(削除) vs. (Laur vs 大国奏音) vs. (sasakure.UK × TJ.hangneil) vs. (rintaro soma)
&des=yoinked
&lv_5=14+
&des_5=PANDORA BOXXX vs. Luxizhel vs. 佑 vs. maimai TEAM DX
&lv_6=15
&des_6=PANDORA PARADOXXX vs. Safata.GHz vs. project raputa vs. BEYOND THE MEMORiES
&inote_5=
(150){1},
{48},,,,,,,,,,,,,,,,,,,,,,,,,,,,,,,,,,,,,,,,,,,,,8,1/7,2/6,
{48}3/5<4[8:25],4,,,,,,,,,,,,,,,,,,,,,,,4h[4:1],,,,,,,,,,,,,,,,,,,,,,,,
{2}4h[4:1],5h[4:1],
{2}5h[4:1],6h[4:1],
{96}6h[4:1],,,,,,,,,,,,,,,,,,,,,,,,,,,,,,,,,,,,,,,,,,,,,,,,6,,,,,4,,,,,6,,,,4,,,,,6,,,,,3,,,,,5,,,,,3,,,,5,,,,,3,,,,,
{16}2b/6b,,,,3,4,3,4,3,2,3,4,3,,4/5,,
{16}7,8,7,8,7,5,7,8,7,,4/5,,2,1,2,8,
{16}2,4,2,8,2,,4/5,,7,4,6,5,6,2,5,4,
{8}3/6-3[8:1],3,2,1-5[8:1],8,7,6-1[8:1],4,
{8}3,2-6[8:1],8V24[8:3],8V64[4:1],,,,,
{16}7,,3/7,,6,5,6,5,7,7,3,4,3,5,2/5,,
{16}3<5[8:1]/6,,7,7,7,,8<5[8:1],,4,4,4,,3,,3qq3[4:1]/5pp5[4:1],,
{96}3/5,,,,,,,,,,,,,,,,,,,,,,,,,,,,,,,,,,,,,,,,,,,,,,,,2,,,,,5,,,,,2,,,,5,,,,,2,,,,6,,,,,,3,,,,,6,,,,3,,,,,6,,,,,
{96}3,,,,,7,,,,,4,,,,7,,,,,4,,,,,6,,,,,,6,,,,,,5,,,,,,5,,,,,,4,,,,,,,,5,,,,,,,,6h[24:5],,,,,,,,4h[8:1],,,,,,,,,,,,,,,,,,,,,,,,
{24}2h[8:5]/4-8[8:3],,,,,,,,,,,,,,,,,,8,1/7,2/6,3/5,4h[6:5],,
{16},,,,,,,,,,,,5h[8:1],,,2h[32:3]/6h[32:3],
{48},,,,,,3h[16:1]/7h[16:1],,,,,,,,,4h[32:1]/8h[32:1],,,,,,,,,4/8,,,3/7,,,2/6,,,1/5,,,4/8-4[8:1],,7,,6,,5,,4,,3,,
{8}2/8,,(200)2b/6b,,4/8,,5,4,
{16}3/6,,2/7,,2/7,,1,1,8h[2:1],,,,2,,3,,
{16}4h[4:1],,8,,7<5[8:1],,2,,2,3,4,,4/5,,4/5,,
{16}3/6,,,,4/7,,6,6,5h[4:1],,,,7h[4:1],,5,,
{16}4<7[8:1],,3,,2,,,,1z5[2:1],8-4[16:7],1,8,,,,,
{12},,,,,,3/6,5,4,3,4,5,
{48}3/6,,,,2/7,,,,1/8,,,,(150)2/7h[4:1],,,,,,3,,,,,,4,,,7,,,5h[4:1],,,,,,6,,,,,,8,,,5,,,
{16}8h[4:1],,1,,2,8,2>5[8:1],,3,,2/6-1[8:1],,7,,2/6,,
{16}2,3,4,5,3,4,5,6,4/7,,4/7,,6,6,5,5,
{16}4,4,3/5,,2bV48[4:1]/6b,,,,8,,7,,6V84[4:1],,6,,
{24}4,,,3,,,2,,,2,1,2,1-5[8:1],,,3,,,3,,,,,,
{8}1/5,2/6,3/7,4-2[8:1]/8-6[8:1],1/5,4b-7[8:1]/8b-3[8:1],,4b-8[8:1]/8b-4[8:1],
{8},4b/8b,,3/7,3b/7bV51[4:1],,1,2,
{16}3V15[4:1],,3,,6,,7,,8,,8,4,6,2,1/5,,
{48}2/4h[6:1],,,,,,,,,,3/5h[8:1],,,,,,,,4/6h[32:5],,,,,,,,,5h[16:3]/7,,,,,,,,,7,,4h[8:1],,,,,,6,,3h[6:1],,
{48},,,,,,5,,2h[8:1],,,,,,5h[24:5],,1,,,,,,,,1h[32:5],,,,,,,,,2h[32:5]/8h[32:5],,,,,,,,,3h[32:5]/7h[32:5],,,,,,
{48},,,4h[32:5]/6h[32:5],,,,,,,,,5<1[8:1],,,,,,,,,,,,1,,2,,3,,4,,,,,,,,,,,,,,,,,,
{32}3b/4h[8:1],,,,,,3h[8:1]/5h[8:1],,,,,,2/4,,,,3,4,3,4,3,4,,,5h[8:1]/6b,,,,,,4h[8:1]/6h[8:1],,
{32},,,,5/7,,,,6,5,6,5,6,5,,,6b-3[16:1],,,,,,1b-6[16:1]/6b,,,,,,1b/5b-1[16:1],,,,
{16},2b-5[16:1]/5b,,,2b/6b-2[16:1],,,1b>7[16:3]/6b,,,1b/7b,,,,,,
{8}3bV57[8:1]/7bV53[8:1],3bV17[8:1]/7bV13[8:1],,,,2bV46[8:1]/6bV42[8:1],2bV86[8:1]/6bV82[8:1],,
{16},,,,8bv5[16:1],,,3bv8[16:1]/8b,,,3b/6bv3[16:1],,,1b/6b,,,
{96}2,,,,1,,,,2,,,,1,,,,2,,,,1,,,,3,,,8,,,4,,,7,,,5,,,,6,,,,5,,,,6,,,,,,,,,,,,1/8,,,,,,,,,,,,2b/7bV51[4:1],,,,,,,,,,,,,,,,,,,,,,,,
{8}1V73[4:1],2,3V15[4:1],4,5V73[4:1],4,3<8[4:1],2,
{8}2,1,1>4[8:1],1,4,5<8[8:1],5,8,
{8}1-5[8:1],1V73[4:1],1,,,,1bp8[8:3]/5bp4[8:3],,
{12},,,,,,5,5,1,1,2,2,
{96}3,,,,,,,,3,,,,,,,,4,,,,,,,,2h[4:1]/5,,,,,,,,,,,,,,,,,,,,,,,,7,,,,,4,,,,,7,,,,4,,,,,7,,,,4,,,,,,6,,,,,3,,,,6,,,,,3,,,,,
{96}5,,,,,2,,,,,5,,,,2,,,,,5,,,,,3,,,,,,3,,,,,,4,,,,,,4,,,,,,5,,,,,,,,4,,,,,,,,3h[24:5],,,,,,,,5h[8:1],,,,,,,,,,,,,,,,,,,,,,,,
{64}4/5,,,,,,,,,,,,,,,,1/8,,,,,,,,,,,,,,,,(75)3b/7h[8:1],4,5,6,,8,1,2,3h[8:1],6,5,4,,2,1,8,7h[8:1],4,5,6,,8,1,2,3h[8:1],6,5,4,,2,1,8,
{64}7h[8:1],4,5,6,,8,1,2,3h[8:1],6,5,4,,2,1,8,7,4,5,6,7,8,1,2,3/6,5,4,3,2,1,8,7,2h[8:1]/6,5,4,3,,1,8,7,6h[8:1],3,4,5,,7,8,1,2h[8:1],5,4,3,,1,8,7,6h[8:1],3,4,5,,7,8,1,
{192}2h[8:1],,,5,,,4,,,3,,,,,,1,,,8,,,7,,,6h[8:1],,,3,,,4,,,5,,,,,,7,,,8,,,1,,,2b,,,5,,,4,,,3,,,2,,,1,,,8,,,7,,,2b/6b,,,1/5,,,4/8,,,,,,,,,,,,,,,,,,1/7,,,,,,,,,,,,,,,,3/7,,,,,,,,3,,,,,,,,3/7,,,,,,,,,,,,,,,,4/8,,,,,,,,,,,,,,,,4/7,,,,,,,,7,,,,,,,,4/7,,,,,,,,,,,,,,,,
{96}3h[24:1]/6h[24:1],,,,,,,,3/6,,,,4,,5,,3,,6,,4,,5,,3,,6,,4,,5,,3,,6,,4,,5,,3,,6,,,,,,1/5h[1:0],2,3,4,5,6,7,8,1/5h[1:0],2,3,4,5,6,7,8,1h[1:0]/5h[1:0],,,,,,,,3h[1:0]/7,6,5,4,3,2,1,8,3h[1:0]/7,6,5,4,3,2,1,8,3h[1:0]/7h[1:0],,,,,,,,
(150){16}1pp5[4:1]/5pp1[4:1],,,,,,,,,,2,4,2,7,5,7,
{24}3b>8[8:1]/6b,,,,,,3/8-4[8:1],7,6,5,,,5,,,5,6,7,3/8,,,1/6<1[8:1],,,
{48}3,,,,,,1/6,,2,,3,,4,,,,,,2,,1,,2,,1,,,3,,,3,,,,,,2/4,,,,,,3/6<1[8:1],,,,,,
{24}5,,,1-5[8:1]/6,2,3,4,,,4,,,4,3,2,1/6,,,3>8[8:1]/8,,,4/6,,,
{48}3/8,,7,,6,,5,,,,,,7,,8,,7,,8,,,6,,,6,,,,,,5/7,,,,,,2>5[8:1],,,8,,,1,,,,,,
{24}2/5-1[8:1],6,7,8,,,8,,,8,7,6,2/5,,,4/7<4[8:1],,,1/2,,,4/7,3,2,
{48}1,,,,,,3,,4,,3,,4,,,1,,,1,,,,,,2/8,,,,,,7<4[8:1],,,1,,,8,,,,,,4-8[8:1]/7,,3,,2,,
{24}1,,,1,,,1,2,3,4/7,,,1/8<5[8:1],,,2/5,,,4/8,3,2,1,,,
{24}1/5,2/6,3/7,4/8,1,2,3,4,1/5,2/6,3/7,4/8,1bs5[4:1]/5bs1[4:1],,,,,,,,,,,,
{8},4/8,3/7,2>5[8:1]/6<1[8:1],,2-6[8:1]/6-2[8:1],,2/6,
{16},,4/8,4/8,4/8,,3,4,3,4,3,2,3,7,8,7,
{48}6,,,7,,,8,,,7,,,2b,,4,,3,,5,,,4,,,7,,5,,6,,4,,,5,,,3,,4,,3,,2/5,,,,,,
{96}8,,,1/7,,,2/6,,,3/5,,,4,,,,,,,,,,,,1/6<1[8:1],,,,,,,,,,,,3/4,,,,,,,,,,,,1/6,,,,2,,,,3,,,,4,,,,,,,,,,,,1/4,,,,,,,,,,,,4/5,,,,,,,,,,,,
{16}2/7,,5/6,4b/7b,,3/4,2b/5b,,1/8,2b/7b,,1,1,7,3,5,
{48}1b/6b,,,,,,3>8[8:1],,,7,,,5,,,,,,3/8-4[8:1],,7,,6,,5,,,,,,5,,,,,,5,,6,,7,,2/8,,,,,,
{96}3,,,,,,3,,,,,,2/4,,,,,,,,,,,,6,,,,,,6,,,,,,5/7,,,,,,,,,,,,4/8,,,,,,3/7,,,,,,2/6,,,,,,1/5,,,,,,6,,,7,,,8,,,1,,,2,,,3,,,4,,5,,,,
{16}2b<8[8:1]/6b,,4,4,4,,5<8[8:1],,1,1,1,,2,,2pp2[4:1]/8qq8[4:1],,
{96}2/8,,,,,,,,,,,,,,,,,,,,,,,,,,,,,,,,,,,,,,,,,,,,,,,,3,,,,,8,,,,,3,,,,8,,,,,3,,,,8,,,,,,2,,,,,7,,,,2,,,,,7,,,,,
{96}1,,,,,6,,,,,1,,,,6,,,,,1,,,,,7,,,,,,7,,,,,,8,,,,,,8,,,,,,1,,,,,,,,8,,,,,,,,7h[24:5],,,,,,,,1h[8:1],,,,,,,,,,,,,,,,,,,,,,,,
{24}5-1[8:3]/7h[8:5],,,,,,,,,,,,,,,,,,1/8,2/7,3/6,4h[8:3]/5,,,
{4},8s4[8:1]*z4[8:1],,(225)4/5<8[4:1],
{4}3,2,1>4[4:1]/8,7,
{4}6,4/5<8[4:1],3,2,
{4}1>4[4:1]/8,7,6,4h[4:1]/6h[4:1],
{4},3h[4:1]/5h[4:1],,4h[4:1]/7h[4:1],
{96},,,,,,,,,,,,,,,,,,,,,,,,3h[4:1]/5h[4:1],,,,,,,,,,,,,,,,,,,,,,,,,,,,,,,,,,,,7h[4:1],5h[96:23],,,,,,,,,,,,,,,,,,,,,,,,,,,,,,,,,,,
{96}2h[4:1]/5h[4:1],,,,,,,,,,,,,,,,,,,,,,,,,,,,,,,,,,,,5h[96:23],8h[96:23],,,,,,,,,,,,,,,,,,,,,,,,,,,,,,,,,,,1h[4:1],,,,,,,,,,,,,,,,,,,,,,,,
{12}7h[4:1],,,3h[4:1],,,5h[4:1],,,6h[8:1],,7h[96:11],
{24},,8h[48:5],,,,1h[16:1],,,,2h[96:5],,,,3h[24:1],,,,4b/6b,,,4/6,,,
{8}4,4,3/5,3/5,5,5,3/6,3/6,
{8}3,3,2/6,2/6,6,6,4/7,4/7,
{8}4,4,3/5,3/5,5,5,4/6,4/6,
{8}4,4,3/6,3/6,6,6,4/7,4/7,
{8}4,4,4/7-4[8:1],,,2-7[8:1],,,
{8}5-2[8:1],,,1b,,,7-5[8:1],,
{4}3/7-1[8:1],2/7,2-4[8:1]/8,2-8[8:1]/6,
{8}2/7,,1/7-5[8:1],1,2/7-1[8:1],2,3/7,3,
{8}3-5[8:1]/6,6,3-1[8:1]/7,7,3/8,8,2/8-6[8:1],2,
{16}3/8-4[8:1],,3,,3/8,2,1,,1-3[8:1]/5,,5,,1-5[8:1]/6,,6,,
{16}1/6,7,8,,3/8<6[8:1],,3,2,1/8-4[8:1],,1,,1/8,2,3,,
{16}1>3[8:1]/7,,7,6,1-5[8:1]/5,,5,,1/5,6,7,,1/7<5[8:1],,1,2,
{48}3/7-3[8:1],,,,,,3,,,,,,3/7,,,2,,,1,,,,,,1>4[8:1]/4,,,,,,4,,,,,,1/4,,5,,6,,7,,,,,,
{24}7b,6,5,4,3,2,1,8,2b/7b,3,4,5,6,7,8,1,2/7,3/6,4w8[8:13]/5w1[8:13],,,,,,
{1},
{8},,,,,,,4b/8b,
{1}2b/6b,
{1},
{1},
{1},
(60){4},,,,,
(276),,
||
217
ms
||
LK
(201){1},{8}3,5,4,6,5h[4:1],,6,,4,4,5,3h[4:1],,5h[8:3],,4,
4,,{16},,6,6,{8}4,5,3,4,2h[4:1],,3,,{16}3/4,,,4/5,,,5/6,,
{8}5/6,,,{24}5,6,5,{4}6,4/5,3/5,{8},{24}4,3,4,{8}3,,4/5,,
4/6,,,{16}6,6,{8}4,5,3,4,2h[4:2],,,,1,1,2,8,
3/7,4,6,2,4,,3/5,,6,6,4,5/3h[4:1],,4h[4:1],,3,
3,5,2,6,1,4,3,5,4/6h[4:1],,5,,{4}7/8,1/6,
2q5[4:2]/5,,,8,7p4[4:2]/4,,,1,
2/6h[4:2],,{16}4,3,2,1,8,7,6,5,8,7,6,5,7,6,5,4,6,5,4,3,5,4,3,2,
{1}1h[4:8]/4b,,
{8}6,6-2[8:1],,4,4h[4:1],,1,1-5[8:1],,3,3,,2-5[8:1]/6-1[8:1],,,,
3,3-7[8:1],,5,5h[4:1],,8,8-4[8:1],,6,6,,7-4[8:1]/3-8[8:1],,,,
2/6,,1>4[8:1],5,1/6,,8-3[8:1],3,8/2,,1-6[8:1]/5-2[8:1],1/5,1/5,,7-2[8:1]/3-6[8:1],7/3,
{4}7bq1b[4:5]/3q5[4:5],,,,,,,{16}4,5,4,,
{4}2v5[8:1]/6b-1b[8:1],2/6,8/4b,{8}1/7,2/6,3h[16:1]/5,3h[16:1],3h[16:1]/1,3h[16:1],3h[16:1]/6,3h[16:1],3h[16:1]/4,3h[16:1],
{4}7v4[8:1]/3b-8b[8:1],7/3,1b/5,{8}2b/8,3/7b,4b/6h[4:1],,8b,1b/5b,4-8[8:1],2-5[8:1],4,2,
{4}8x<6[8:1]*v5[8:1],8b>2[8:1]*v3[8:1],8b,{8}5b/6b,4b/7b,8bh[8:1]/3bh[8:1],,1b/6b,1b/6b,{16}7b,8b,7b,8b,6b-3b[8:1],5b,6b,5b,
{8}6b,,2/8,{16}3,4,2,,6,5,{8}7-3[8:1],8,7/1>4[8:1],,1/5w1b[8:1],,Cf/B1/B5/A1/A5,,,,
2h[8:1]/8,8,3/7,4/6,3/5h[8:1],3,2/4,1/5,8h[8:1]/6,6,1/5,2/6,3/7h[8:1],3,4/6,3/5,
2h[8:1]/4,4,3/5,4/6,3/7,{16}2,1,3,,6,5,7,,{8}1/8,2z6[8:3]/7s3[8:3],3/6,,,,,
4/5-8[8:1],,1b,,7h[8:1]/1,1,2/6,3/5,4h[8:1]/6,6,3/7,2/6,1/5h[8:1],1,6/8,1/7,
2/8,3/7,2/6,3/5,4h[8:1]/6h[8:1],,{16}5p2[8:3]/7,5/7,{8},Cf,,,,8w4b[8:1],,8,,
{4}2b-6[8:1]/6b,5-1[8:1],3,{16}8,7,6,5,{8}4/2-5[8:1],2,6-2[8:1],6,{4}1,5/7p4[8:3],
2-5[8:1],,2/6,{16}1,2,3,4,{8}5/7-4[8:1],7,3-8[8:1]*v6[8:1],3,,,{32}5,4,3,2,1,8,7,6,
{4}5b-2[8:1]/4b-7[8:1],5/4-8[8:1],4/5,{16}1/6,2,3,4,{8}5/7-4[8:1],7,3-7[8:1],3,8-4[8:1],8,1,1,
{4}2-5[8:1]/6-1[8:1],2/6,3-8[8:1]/7-4[8:1],3/7,{8}1/5,2/6,3V16[4:1]/7V52[4:1],4/8,3b/7b,,,,
3b/6b-3[8:1],,1/6,{16}2,8,2,,7,1,7,,3,4,2,,6,5,7,,2,1,3,8,4,7,1h[8:1],,5,3,
{8}8b-4[8:1],,1/8,{16}2,6,2,,8,4,8,,3,4,2/5,,,4/7,,,1/8,,{32}1,2,3,4,5,6,7,8,1,2,3,4,5,6,7,8,
{8}1-5[8:1]/Cf,,,,1/8,{16}2,6,2,,8,4,8,,2,1,2,,3/8,,6,5,,3,4,,{8}2/5,
7h[4:4]/1,1,1,1,{32}1,2,3,4,5,6,,8,{48}1,2,3,4,5,6,,8,1,2,3,4,{1}5b-1[4:3],
5bh[1:1],{4}1>4<7[4:2],4<7b[4:1],7>2b[4:1],2,
{8}4b-8-6[4:1],4,3,2,1-5-3[4:1],1,5,6,{4}7>2>5b[2:1],2>5[4:1],5<8[4:1],8,
{8}2-4[8:1],1-5[8:1],2,1,8-4[8:1],7-5[8:1],8,7,1-3[8:1],1-7[8:1],1-5[8:1],,,,1-3-5-7b[8:3]/7,,
B3/B4f/B5,,,,8,8,7>5[8:3],7,B2/B3f/B4,,,,{16}8,7,8,,6,5,7,,
{4}4/8>6[4:2],3<6[4:1],6q3b[4:1],3<1[4:2],E5f/B4/B5,,3,2,
8/1<3[4:2],6>3[4:1],3p6b[4:1],6>8[4:2],E5f/B5/B4,,6,7,
{8}7-4[8:1],2-6[8:1],7,2,1-6[8:1],5-1[8:1],1,5,7-4[8:1],3-7[8:1],7,3,8b,,{16}2/8-4-8b[4:1],3/7,4/6,,
{8}1b,1b-5-1b[4:1],,7b,7b-3-7b[4:1],,2b,2bh[4:1],,8,8,8,{16}2,3,4/8,7,6/1-5[8:1],2,3/7,6,
{32}5/1b>8[4:13],Cf,,,{8},{4},,,{1},
,,
{2}1>8[4:13]/8,C,,C,
,C,,C,
{8}3x/7x,4,4/6,5,2x/4x,3,3/7,6,4x/6x,4,3/7,6,2/5,3,3/7,6,
3x/5x,3,4/7,6,2/5,3,3/7,6,2x/5x,2,3/4,5,4/6,4/6,3/5,3/5,
1b,,,,{16}2,5,2,5,3,6,3,6,4,7,4,7,5,6,5,6,4,5,4,5,3,4,3,4,
2,1,3,8,4,7,5,6,4,5,4,5,3,6,2,7,{24}1,8,1,8,1,8,1,8,1,8,1,8,1,8,1,8,1,8,1,8,1,8,1,8,
{2}1b,,5h[8:7]/4,1bh[8:3],
{4}1b-6b[8:1]/5-2[8:1],1/5,{16}3/7,4/8,1/5,2/6,3/7,4/8,1/5,2/6,{4}3>8[8:1]/7<4[8:1],3/7-3[8:1],7/1-5[8:1],1/5,
{16}2,4,3,7,5,6,1,4,3,8,5,6,2,7,4,5,1b,,,4/7,,,3/5,,{4}3/5w1[8:1],5,
3-8[8:1]/7,3/6-1[8:1],{8}6/4-1[8:1],3,4/5-8[8:1],6,5/2-6[8:1],,1/2,,3/7,{16}4,8,3,7,2,6,
1>4[8:1],,,,5,6,7,8,1<6[8:1],,,,4,3,2,1,8,4,8,4,1,5,1,5,{32}2,3,4,5,6,7,8,1,{4}2b/6,
8b-3b[8:1]/4-7[8:1],8/4,{16}6/2,5/1,8/4,7/3,6/2,5/1,8/4,7/3,{4}6<1[8:1]/2>5[8:1],6/2-6[8:1],2/8-4[8:1],8/4,
{16}7,5,6,2,4,3,8,5,6,1,5,3,{8}4b,2b/6,{4}8b-3[8:1]/4-7[8:1],4/8,1b<6[8:1]/5>2[8:1],1/5,
{8}1-5[8:1]/5,1,1/7-3[8:1],7,7/2-6[8:1],2,2/8-4[8:1],8,8/5-1[8:1],5,5/6-2[8:1],6,6/7<4[8:1],7,7/8,,
{16}2b,1,2,1,2,3,2,3,4,3,4,3,4,5,4,5,{8}4b,{32}7,6,5,4,{8},{32}1/2,3,4,5,{8},7b/8b,1b/6b,,
2/E7/D7,2/E6/B5,,8/E3/D3,8/E4/B4,,2/E7/B6,2/D6/A5,,8/E3/B3,8/D4/A4,,1>4[8:1]/7<4[8:1],,,,
8/E4/B4,8/E3/D3,,{16}1b/E7/B7,2b,{8}3b/E6/B5,,8/E4/B4,8/E3/D3,,{16}1b/A6/B6,2b,{8}3b/A5/E5,,1>4[8:1]/7<4[8:1],,,,
2/6,,{16}1,8,1,8,1,8,1,8,1,8,1,8,2,6,3,5,4,7,3,8,2,7,3,6,4/5,,{24}4bqq5b[8:27]/5b,3b/6b,2b/7b,
{1}1b/8bqq1[4:13],,
,,
{8}4b/8bh[4:1],,6,6h[4:1],,4,4h[4:1],,2,2h[4:1],,1,1,,3/8,,
4/7,4/7,{16}6,5,6,5,6,,3,4,3,,2/5,,3,4,,6,5,,{8}1/8,1>4[8:1]/8<5[8:1],,1b/8b,,
{16}7,8,6,1,7-3[8:1],8,6,1,{8}7,,2/4,3/5,4/6,{24}7,5,7,5,,,2,4,2,4,,,{16}1/3,1/3,{4}1-7[8:1]/3-7[8:1],
1b-5b[8:1]/3b-5b[8:1],1b/3b,{8}8,{12}7h[12:1]/5h[12:1],,2h[12:1]/4h[12:1],{8},{12}5b/3,5b/3,5b/3,{16}4h[32:1],4h[32:1],4h[32:1],4h[32:1],{4}4bw8[8:1],4b,
{16}2,6,2,6,1,5,2,6,{12}3b/7b,,2/8b,2/8b,2/8b,2/8b,{32}1b,2,3,4,7,,,,1b,2,3,4,6,,,,8b,7,6,5,8b,7,6,5,8b,7,6,5,8b,7,6,5,
{4}1bv3b[4:3]*s5b[4:3],,,,,1/8,2/7,3/6,
{16}2b,4b,3b,8b,6b,7b,1b,3b,2b,7b,5b,6b,3b,5b,2b,6b,{24}1b,7,1,7,,,8b,2,8,2,,,1b,1,1,1,1,1,1-5b[16:1],1,1,1,1,1,{64}1b/B2f/B3f/B4f/B5f/B6f/B7f/B8f,Cf,,,,,,,,,,,,,,,{4},,,
{1},,,
(60){4},,,,,,
(300){4},,,,{8},
||
900
ms?
||
raputa
(230){1}8h[8:41]/1-4>3-6>5-8<7-2<1[2:7],
{1},
{1},
{1},
{8}1,,,2,,,3,,
{8},4h[8:21],,,,,,,
{1}C1h[1:1],
{4}B1/B2,,,8-4b[8:1],
{16}8b,,,,3/5,,,2,4<7[8:1],,4,,1-5[8:1],,1,,
{16}8,,,,4/6,,,7,5>2[8:1],,5,,8-4[8:1],,8,,
{16}1,,,,3/5,,,2,4,,4,,3/5h[4:1],,,,
{16}4,3,2,1,8,7,6,5,8,7,6,5,8,7,6,5,
{16}4b,3,2,1,8,7,6b,5,8,7,6,5,8,7,6b,5,
{16}1,2,3b,4,5b,6,7,8,5b,6,7,8,5,6,7b,8,
{16}1,2,3b,4,5,6,7,8,5,6,7b,8,5,6,7,8,
{8}1h[4:1],,5,2h[16:1]/6h[16:1],,4/8,4/8-4b[8:1],,
{16}1h[16:1]/8b,,,,3/5,,,2,4<7[8:1],,4,,1-5[8:1],,1,,
{16}8,,,,4/6,,,7,5>2[8:1],,5,,8-4[8:1],,8,,
{16}1,,,,3/5,,,6,4,,4,,4h[4:1]/5,,,,
{16}5,6,7,8,1,2,3,4,1,2,3,4,1,2,3,4,
{16}5b,6,7,8,1,2,3b,4,1,2,3,4,1,2,3b,4,
{16}8,7,6b,5,4b,3,2,1,4b,3,2,1,4,3,2b,1,
{4}4/8-4[8:1]-2[8:1]*-4[8:1]-6[8:1],,,1/7,
{8}4/8,8,3/7,3,2/6,6,1/5,1,
{1}4h[4:3]/8h[8:3],
{1}1h[8:3]/3h[4:3],
{8}3h[8:3],,,4h[8:3],,,5h[4:3],,
{8},6h[8:5],,,,,,,
{1}7h[4:3]/8h[8:3],
{1}6h[4:3]/7h[8:3],
{8}5h[8:3],,,4h[8:3],,,3h[8:3],,
{32},,,,,,,,,,,,,,,,E2,E1,E8,E7,E6,E5,E4,E3,E2,,,,,,,,
{8}4h[4:1],,,4h[4:1],,,4,4,
{8}3h[4:1]/5h[8:1],,5,3h[8:1]/5h[4:1],,3,3/5,,
{8}5h[4:1],,,5h[4:1],,,5,5,
{8}4h[8:1]/6bh[4:1],,4,4bh[4:1]/6h[8:1],,6,4/6b,,
{8}4/5,5/4v3[8:1],,5v6[8:1],,,,2/7,
{16}1,8,1,8,1,,,,,,7,,8,,7,,
{8}2,1-6[8:1],2,1-4[8:1],,1,,6h[8:1],
{12}4,4,5,3,3,6,2,2,7,1,1,8,
{8}2-5[8:1],7-4[8:1],2,7,,1,8,7<5[8:1],
{8}1,7,,2>4[8:1],8,2,7,6h[4:1],
{16}5,,5,,,,4b/7b,,,,3,4,5,6,7,8,
{16}1/5,4,3,2,1,4/8,3/7,2/6,1/5,,4<7[8:1]/8>3[8:1],,,,4/8,,
{8},,3/6,4-1[8:1]/5-8[8:1],,4/5,,2b/7b,
{16},,6,5,4,3,2,1,4/8,5,6,7,8,1/5,2/6,3/7,
{384}4/8,,,,,,,,,,,,,,,,,,,,,,,,,,,,,,,,,,,,,,,,,,,,,,,,1-5[8:1],,,,,,,,,,,,,,,,,,,,,,,,,,,,,,,,,,,,,,,,,,,,,,,,,,,,,,,,,,,,,,,,,,,,,,,,,,,,,,,,,,,,,,,,,,,,,,,,1/4,,,,,,,,,,,,,,,,,,,,,,,,,,,,,,,,,,,,,,,,,,,,,,,,,,,,,,,,,,,,,,,,,,,,,,,,,,,,,,,,,,,,,,,,,,,,,,,,2/6,,,,,,,,,,,,,,,,,,,,,,,,,,,,,,,,,,,,,,,,,,,,,,,,,2-6b[384:47],,,,,,,,,,,,,,,,,,,,,,,,,,,,,,,,,,,,,,,,,,,,,,,,,,,,,,,,,,,,,,,,,,,,,,,,,,,,,,,,,,,,,,,,,,,,,,,
{8}C1f/8b,8b,8b,8b,2b/8b,2b/8b,2b/8b,2b/8b,
{8}1>3[8:1],8,1,7<5[8:1],1,7,8>2[8:1],7,
{16}8,,5,,5,,2/5,,3,4,3,4,3-1[8:1],,5,,
{8}3,8<6[8:1],3,8,3<5[8:1],8,3,7-3[8:1],
{8}3,7,1b,,2-6[8:1],1,2,1<7[8:1],
{8}2,1,3<5[8:1],1,3,7,7,4/7,
{16}6,5,6,5,6-2[8:1],,4,,6,,5>3[8:1],,7,,5,,
{8}7>1[8:1],5,7,2-6[8:1],4,2,8b,,
{8}7-4[8:1],5,7,3-8[8:1],5,3,6-3[8:1],1,
{16}6,,2,,2,,2/8,,7,1,7,1,7-5[8:1],,8,,
{8}7,2-8[8:1],4,2,6-4[8:1],1,6,2,
{24}2,,,2,,,1b/8b,,,,,,(240)5/7,,,,5/7,,,,5/7,,,,
{6}3/5,3/5,3/5,(250)1/3,1/3,1/3,
{6}1/8,1/8,1/8,(260)1/8,2/4,4/5,
{6}5/7,1/8,2/4,(270)2h[12:1]/4h[12:1],1h[12:1]/8h[12:1],5h[12:1]/7h[12:1],
{6}4h[12:1]/5h[12:1],2h[12:1]/4h[12:1],1h[12:1]/8h[12:1],1bh[4:27]/8b<8<8<7-5>4-2<1-7<6-4>3-1<8-5[4:26],,,
{1},
{1},
{1},
{1},
{1},
{1},
{1},
{2},(230)5h[2:3]/6>5-8<7-2[4:5],
{1},
{2},3xh[2:7]/4>3-6>5-8[4:5],
{1},
{8},,,,B5/B6/E6/D6,,,E4,
{8},,B1/B2/E2/E3,,,B7/B8/D8,,,
{2}B5/A5/B6/E6,C1/4h[4:7],
{2},6h[4:1],
{4}5h[4:1],,2bh[4:1]/6,5h[4:1],
{8}4h[4:1],,6,6,4,5,5,4,
{4}3v4[4:1],5,6bh[4:1],4h[4:1],
{8}5h[4:1],,3,3,5,4,4,5,
{4}6v5[4:1],4,2bh[4:1],4h[4:1],
{8}3h[4:1],,5,5,3,4,4,3,
{4}2v4[4:1],5,6p2<8b[16:9],5,
{4}4,3,3h[4:3]/7h[2:1],,
{16},,,,8-4b[8:1],,,,8b,,,,3/5,,,2,
{16}4<7[8:1],,4,,1-5[8:1],,1,,8-3b[8:1],,,,3/8,,,4,
{8}5v8[8:1],5,2,2,1-6-8[4:1],1,4,4,
{8}5,5,1/5,1/5,2/4,2/4,4/5,4/5,
{8}5h[16:1]/7h[16:1],5h[16:1]/7h[16:1],6h[16:1]/7h[16:1],6h[16:1]/7h[16:1],6/7<4[8:1],,1/7,2-6[8:1],
{16},,1/2,8,7-3[8:1],,,,4/7,,2h[4:1],,,,5,,
{16}3/6,,3/6,,1/8h[4:1],,,,1,2,3,4,5/7,4,3,2,
{16}1/8,7,6,5,2/4,5,6,7,1/8,2,3,4,5/7,4,3,2,
{16}1/8,7,6,5,3/4,5,6,7,1/8-3[8:1],,,,1,,2,,
{8}4-7[8:1],2,1,,1v6[8:1],8,1,7,
{8}5v2[8:1],6,5,,8/1-6[8:1],,8,7,
{8}5-2[8:1],7,8,,8v3[8:1],1,8,2,
{8}4v7[8:1],3,4,,8h[4:1],,6,6h[4:1],
{8},4,4h[4:1],,2,2h[4:1],,1,
{16}1,,,,3/7,,,,6,4,6,4,6,,2,5,
{16}2,5,2,,7-5-8-4-1-3b[4:3],8,7,8,7b,,,,,,,,
{8},,,,(230)4/1-5[8:1],1,7,7h[4:1],
{8},4,4,2h[4:1]/6,,8,3/7,3/7,
{16}6,6,4,4,5,5,3,3,4<7[8:1],,1,,2,,2h[4:1],,
{8},8,8,5/7h[4:1],,1,2/6,2/6,
{16}3,3,5,5,4,4,6,,3b/7b,,2,1,2,,3/8,,
{16}2,1,2,,3/7,,2,1,2,,3/6,,1,8,1,8,
{16}1,2,3,4,5/6,7,8,1,3,4,3,4,3h[8:1],,7,5,
{16}6,5,7h[8:1],,2,4,3,4,2h[8:1],,5,3,5,3,5,3,
{16}4,4,5,3,4,4,5,3,6b-8[8:1],,4-6[8:1],,6,,4,,
{16}1,2,3,4,5/8,1,2,3,7-5[8:1],,5-1[8:1],,7,,2,,
{16}2,3,4,5,2/6,1,8,7,3b-1[8:1],,5-3[8:1],,3,,5,,
{16}8,7,6,5,1/4,8,7,6,2-4[8:1],,4-8[8:1],,2,,7,,
{16}7,6,5,4,3/8,1,2,3,4/8b,,6,5,6,,1/5,,
{16}3,4,2,,5/6,,7,8,7h[8:1],,2,8,2,8,2,8,
{16}1,1,2,8,1,1,2,8,3,7,3,7,4,6,4,6,
{16}3,5,3,5,2,6,2,6,1h[16:1],,2/8h[16:1],,3h[16:1]/7,,4/6h[16:1],,
{8}8h[16:1],1h[16:1]/7,2/6h[16:1],3h[16:1]/5,6bh[4:15]/4b-1>2-7>8-5<6-3<4[2:7],,,,
{1},
{1},
{1},
{8},,,,6,6,5/7h[8:3],,
{8},5,4/6,,3,3,2h[8:3]/4,,
{8},4,3/5,,6,6,4/7h[8:3],,
{8},8,8z4[2:1],,,,,,
{8},,3/5,,6,6,5,7h[4:1],
{16},,4,6,4,6,4,,3/5,,3,,4,,2h[4:1],,
{16},,5,3,5,3,5,,4/6,,6,,5,,7h[4:1],,
{16},,5,6,4,6,4,,3/5,,3,,4,,2h[4:1],,
{16},,4,3,5,3,5,,4/6,,4h[16:1]/6h[8:1],,,,3/5,,
{8}3h[8:1]/5h[16:1],,4/6,4h[16:1]/6h[8:1],,4/5,4h[16:1]/5h[8:1],,
{8}4h[8:1]/6h[16:1],,3h[8:1]/7h[16:1],,2/8,2,3/4,2,
{8}1/7,7,5/6,4,3b/5b,3/5,2/6,2/6,
{16}1/7,,1/7,,8,2,8,2,(230)1b<6[8:1],,2,,3,,4>1[8:1],,
{8}5,6,7<4[8:1],8,1,2<7[8:1],3,4,
{8}5h[16:1],5h[16:1],(238)5b<8[8:1],4,3,2>5[8:1],1,8,
{8}7>2[8:1],6,5,4<7[8:1],3,2,1b,,
(246){8}2b-7[8:1],3,4,5-2[8:1],6,7,8-5[8:1],1,
{8}2,3-8[8:1],4,5,6h[16:1],6h[16:1],(252)6b-1[8:1],5,
{8}4,3-6[8:1],2,1,8-3[8:1],7,6,5-8[8:1],
{8}4,3,2b,,(258)6b>5-3[8:1],7,8,1<8-6[8:1],
{8}2,3,4>3-1[8:1],5,6,7<6-4[8:1],8,1,
{8}2h[16:1],2h[16:1],(266)2b>3[16:1]-5[16:1],1,8,7>8[16:1]-2[16:1],6,5,
{8}4<5[16:1]-7[16:1],3,2,1,8,7,1/6bh[4:1],,
(288){16}8b,1,2,3,8,1,2,3,8,1,2,3,8,1,2,3,
(298){16}4x/8b,7,6,5,8,7,6,5,8,7,6,5,8,7,6,5,
(308){384}4x/8b,,,,,,,,,,,,,,,,,,,1,,,,,,,,,,,,,,,,,,,2,,,,,,,,,,,,,,,,,,,3,,,,,,,,,,,,,,,,,,,4,,,,,,,,,,,,,,,,,,,,8,,,,,,,,,,,,,,,,,,,1,,,,,,,,,,,,,,,,,,,2,,,,,,,,,,,,,,,,,,,3,,,,,,,,,,,,,,,,,,,4,,,,,,,,,,,,,,,,,,,,8,,,,,,,,,,,,,,,,,,,1,,,,,,,,,,,,,,,,,,,2,,,,,,,,,,,,,,,,,,,3,,,,,,,,,,,,,,,,,,,4,,,,,,,,,,,,,,,,,,,,8,,,,,,,,,,,,,,,,,,,1,,,,,,,,,,,,,,,,,,,2,,,,,,,,,,,,,,,,,,,3,,,,,,,,,,,,,,,,,,,4,,,,,,,,,,,,,,,,,,,,
(318){384}5x/8b,,,,,,,,,,,,,,,,,,,7,,,,,,,,,,,,,,,,,,,6,,,,,,,,,,,,,,,,,,,5,,,,,,,,,,,,,,,,,,,4,,,,,,,,,,,,,,,,,,,,8,,,,,,,,,,,,,,,,,,,7,,,,,,,,,,,,,,,,,,,6,,,,,,,,,,,,,,,,,,,5,,,,,,,,,,,,,,,,,,,4,,,,,,,,,,,,,,,,,,,,8,,,,,,,,,,,,,,,,,,,7,,,,,,,,,,,,,,,,,,,6,,,,,,,,,,,,,,,,,,,5,,,,,,,,,,,,,,,,,,,4,,,,,,,,,,,,,,,,,,,,8,,,,,,,,,,,,,,,,,,,7,,,,,,,,,,,,,,,,,,,6,,,,,,,,,,,,,,,,,,,5,,,,,,,,,,,,,,,,,,,4,,,,,,,,,,,,,,,,,,,,
(339){1}3>2-5>4-7<6-1<8-3[2:14]/7-4<5-2>3-8>1-6<7[2:14],
{1},
||
filler?
{1},
{1},
{1},
{1},
{1},
{1},
{1},
{1},
(365){4},
||
tuna
(88.8){1},
{128}6<6[0.6757##4.2255],5,4,,,,,,,,,,,,,,,,,,,,,,,,,,,,,,(78.8),,,,,,,,,,,,,,,,,,,,,,,,,,,,,,,,,,,,,,,,,,,,,,,,,,,,,,,,,,,,,,,,(88.8),,,,,,,,,,,,,,,,,,,,,,,,,,,,,,,,
{1},
{4}4-1[4:1],,(78.8)6,(68.8)8<5[0.8721##0.1689],
(88.8){64}1,2,3,4h[64:5],,,,,,,,,,,,,,,,,,,,,,,,,,,,,4h[8:1]/5h[8:1],,,,,,,,,,,,,,,,3/6,,,,3/6,,,,,,,,,,,,
{16}6,5,4,3,6-3[8:1],5,4,3,2h[16:5],,,,,4,4,3,
{16}3,4,5,6,3-6[8:1],4,5,6,7h[16:5],,,,,5,5,6,
{16}6,5,4,3,6-3[8:1],5,4,3,2h[16:5],,,,,4,4,3,
{32}3,,4,,5,,6h[8:1],,,,3,,3,,2b/8h[8:1],,,,1,,1,,7,8,7,,1/8,,2/7,,,,
{32}3/5>1[8:1],,6,,6,,6,,7,,7,,7,,7,,1/8,,7,8,7,8,7,,7/8,,1/6,,2/5,,3,,
{48}4<8[8:1],,,3,,,3,,,3,,,2,,,1,,,1,,,1,,,D8,A7,D7,A6,D6,A5,D5,A4,D4,A3,D3,A2,D8,A7,D7,A6,D6,A5,D5,A4,D4,A3,D3,A2,
{32}8x<4[8:1],,1x,,1x,,1x,,2,,2,,2,,2,,2,4,3,5,4,6,5,7,4,,4,,2b/6,,,,
{96}3b,,,4,,,3,,,4,,,3,,,4,,,2b,,,4,,,3>6[8:1],,,4,,,3,,,4,,,1b,,,4,,,3,,,4,,,3bx,,,,,,,,,,,,,,,,,,1xh[48:1]/8xh[48:1],,,,1xh[48:1]/8xh[48:1],,,,,,,,2/7,,,,,,C1f,,,,,,,,,,,,
{96}8bx,7,6,5,,,,,,8bx,7,6,5,,,,,,8bx,7,6,5,,,1xh[48:1],,,,1xh[48:1],,,,,,,,1bx,2,3,4,,,,,,1bx,2,3,4,,,,,,1bx,2,3,4,,,8xh[48:1],,,,8xh[48:1],,,,,,,,E2,,,,,,,,,,,,E4,,,,,,,,,,,,
{96}7b,6,5,4,,,,,,7b,6,5,4,,,,,,7b,6,5,4,,,1h[48:1],,,,1h[48:1],,,,,,,,2b,3,4,5,,,,,,2b,3,4,5,,,,,,2b,3,4,5,,,8h[48:1],,,,8h[48:1],,,,,,,,1V35[4:1],,,,,,1,,,,,,7,,,,,,,,,,,,
{4}5V71[4:1],1>5[4:1],5<1[0.6757##0.7614],(78.8)1s5[0.7614##1.3792],
{16},,(68.8),,(58.8),(48.8),(38.8),(88.8)8h[16:9],,,,,,,,,
{16}C1,,,,,,,,,,,,4>5[2:1]/5<4[2:1],3/6,2/7,,
{16}A4/A5/D5f,,,,,,,,,,,,4/6,3h[16:1]/7h[16:1],,,
{32}2b/6b,,3,,4/5,,6,5,7,5,6,,1/7,,2,,3/8,,7,4,6,5,6,,4/7-5[16:1],,4,,3,,2,,
{16}7/1-3[16:1],8,8,8,1/5<8[16:1],4,4,4,3/5,2,1,8,2/7,3/6,4/5h[8:1],,
{32}3,4,2,5,1,6,8,7,5,6,4,7,3,8,2,1,8,7,6,5,3/4,2,1,8,1/5,2/6,3/7,4/8,1b/5b,,,,
{32}7,5,6,5,7,,3,4,2,4,3,,2/5,,3/4,,2,1,3,1,2,,7,8,6,8,7,,1/8,,2/7,,
{96}3b/6b,,,,,,,,,,,,5,,,4,,,3,,,2,,,B7/E7/D7f/1b,,,,,,,,B3/E4/D4f/8b,,,,,,,,B6/E6/D6f/2b,,,,,,,,1h[8:1],,,,,,,,,,,,3h[8:1],,,,,,,,,,,,5h[8:1],,,,,,,,,,,,6,,,,,,,,,,,,
{16}7-4[16:1],4-8[16:1],8-3[16:1],3-7[16:1],,,,,2-5[16:1],5-1[16:1],1-6[16:1],6-2[16:1],,,,,
{16}7,8,1,2,3-8[16:1]/4-7[16:1],2/5,1/6,,3/4,,,,,,1h[1:0]/5h[1:0],,
{48}1b,2,3,4,5,6,7,8,1,2,3,4,6b,7,8,1,2,3,4,5,6,7,8,1,3b,4,5,6,7,8,1,2,3,4,5,6,8b,1,2,3,4,5,6,7,8,1,2,3,
{48}5b,6,7,8,1,2,3,4,5,6,7,8,2b,3,4,5,6,7,8,1,2,3,4,5,6<2[8:1],,,,,,3/5,,,,,,4,,,,,,4h[1:0],,,,,,
{48}4/8b,7,6,5,4,3,2,1,8,7,6,5,3b,2,1,8,7,6,5,4,3,2,1,8,6b,5,4,3,2,1,8,7,6,5,4,3,1b,8,7,6,5,4,3,2,1,8,7,6,
{48}4b,3,2,1,8,7,6,5,4,3,2,1,7b,6,5,4,3,2,1,8,7,6,5,4,3>7[8:1],,,,,,4/6,,,,,,5,,,,,,5h[1:0],,,,,,
{48}1b/5bx,2,3,4,5,6,7,8,1,2x/7b,6,5,4,3,2,1,8,7,3b/6x,4,5,6,7,8,1x/5b,4,3,2,1,8,7,6,5,1b/4x,2,3,4,5,6,7,8,1,2x/6b,5,4,3,2,1,
{48}4b/8x,5,6,7,8,1,2,3,4,5x/8b,7,6,5,4,3,2,1,8,3b/7x,4,5,6,7,8,E5f/1bx,,,,,,E4f/7,,,,,,E6f/2,,,,,,C1f/B4/B5/8,,,,,,
{1}1-5[4:3],
{1}1V75[2:1]*V35[2:1],
{8}C1h[8:1]/7,7pp4[8:3],,,,,,,
{8}C1h[8:1]/2,2qq5[8:3],,,,,,,
{8}C1h[8:1]/7,7qq1[8:3],,,,,,,
{16}C1h[8:1]/2,,2,,1h[8:3]/8,,8,,7h[16:3],,,,,C1,,,
(177.6){8}1b,1b-4[8:1],,7b,7b-2[8:1],,4b,4b-1[8:1],
{8},7b,7b-4[8:1]-8[8:1]-3[8:1],,2,,2,,
{8}1b,1b<6[8:1],,4b,4b>1[8:1],,7b,7b<4[8:1],
{8},3b,3bv6[8:1]-4[16:3]*v8[8:1]-2[16:3],,,,,,
{8}3,3,4,4,5,5,6,6,
{8}5/7,7,4/6,4,3/5,2/4,1b/5b,1b/5b,
{16}2,4,2,4,3,3,3,,7,5,7,5,6,6,6,,
{1}C1f/1,
{1}1>8[8:29],
{1},
{1},
{1},
{4},1>4[8:1]/8<5[8:1],A1/D1f/A8,7<4[8:1]/8>3[8:1],
{4}A7/A8/D8f,1<6[8:1]/2>5[8:1],A1/A2/D2f,7<4[8:1]/8>3[8:1],
{4}A7/A8/D8f,1>4[8:1]/8<5[8:1],A1/D1f/A8,1x/8x,
{32}1,2,3,4,5,6,7,8,1w5[8:1],2,3,4,5,6,7,8,1,,,,,,,,3/7,,,,,,,,
{16}3/8b,,2,1,3>8[8:1],,5,,3/7v4[8:1],6,5,,3/7,,3,,
{16}1/5,,7,8,6<1[8:1],,4,,6/2v5[8:1],3,4,,2/6,,6,,
{16}4/8,,3,4,2-5[8:1],,1,,2/8-3[8:1],7,6,,6/8,,7,,
{4}4>1[8:1]/8<5[8:1],4-7[8:1]/8-3[8:1],4/8,4b/8b,
{32}3,4x,7,6x,3,4x,7,6x,2,3x,8,7x,2,3x,8,7x,1b,,,,,,,,3/5,,,,3/5,,,,
{32}6,5x,2,3x,6,5x,2,3x,7,6x,1,2x,7,6x,1,2x,8b,,,,,,1/7,,,,,,2/6,,,,
{16}3,4,3,,6,5,6,,2,4,2,,6,4,6,,
{8}3/5h[16:1],5h[16:1],5h[16:1]/7,5h[16:1],2/5h[16:1],5h[16:1],5/8b,,
{12}1/2h[4:1],1,1,1,,,7h[4:1]/8,8,8,8,,,
{12}1/3h[4:1],1,1,1,,,5h[4:1]/7,7,7,7-1[8:1],,,
{12}2h[4:1],,,,1,1,2/8h[4:1],,,3,3,5,
{12}4h[4:1]/6,6,6,6,,,1/5h[2:1],1,1,1h[4:1],,,
{384},,,,,,,,,,,,,,,,,,,,,,,,,,,,,,,,,,,,,,,,,,,,,,,,,,,,,,,,,,,,,,,,,,,,,,,,,,,,,,,,,,,,,,,,,,,,,,,,C1f,D2,,,,,,,,,,,A2/D3,,,,,,,,,,,,A3/D4,,,,,,,,,,,,A4/D5,,,,,,,,,,,,A5/D6,,,,,,,,,,,,A6/D7,,,,,,,,,,,,A7/D8,,,,,,,,,,,,D1/A8,,,,,,,,,,,,A1/D2,,,,,,,,,,,,A2/D3,,,,,,,,,,,,A3/D4,,,,,,,,,,,,A4/D5,,,,,,,,,,,,A5/D6,,,,,,,,,,,,A6/D7,,,,,,,,,,,,A7/D8,,,,,,,,,,,,D1/A8,,,,,,,,,,,,A1/D2,,,,,,,,,,,,A2/D3,,,,,,,,,,,,A3/D4,,,,,,,,,,,,A4/D5,,,,,,,,,,,,A5/D6,,,,,,,,,,,,A6/D7,,,,,,,,,,,,A7/D8,,,,,,,,,,,,D1/A8,,,,,,,,,,,,
{24}1x,2x,3x,4x,5x,6x,2,3,4,5,6,7,3,4,5,6,7,8,1b/5b,,,,,,
{16}7,8,7,8,6,5,6,5,1,2,1,2,4-8[8:1],3,4,3,
{8}4,,1/7,2/6-1[8:1],,4,4>6[2:3],,
{1}C1f,
{16},,,,,,,,,,,,1b,8b,1b,8b,
{6}2h[6:1],8h[6:1],6h[6:1],4h[6:1],6h[6:1],8h[6:1],
{96}2,,,,,,,,2,,,,,,,,4,,,,,,,,4,,,,,,,,6,,,,,,,,6,,,,,,,,8,,,,,,,,,,,,1/7,,,,,,,,,,,,1/7,,,2/6,,,3/5,,,4,,,,,,,,,,,,,,,
{48}2,,,1,,,2,,,1,,,2,,3,,4,,8,,7,,6,,1,,,8,,,1,,,8,,,1,,2,,3,,8,,7,,6,,
{24}4,5,4,5,4,5,3,6,3,6,3,6,2bx,7bx,2bx,7bx,2bx,7bx,1,8,1,8,1,8,
{32}1,2,3,4,1,2,3,4,8,7,6,5,8,7,6,5,2,3,4,5,1,2,3,4,7,6,5,4,8,7,6,5,
(78.8){16}4h[128:107]/8,,,,,,,,(58.8),,,,1,,,2,
(68.8){24}2,,,,,,,3,,,,,(58.8)4,,,,,,(48.8)5,,,,,,
{96}A6,E6,B5,B4,E4,A3,,,,,,,,,,,,,,,,,,,,,,,,,,,,,,,,,,,,,,,,,,,,,,,,,,,,,,,,,,,,,,,,,,,,,,,,,,,,,,,,,,,,,,,,,,,
{1},
{1},
{1},
E
&inote_6=
(150){1},
{1},
{64}1/8,2/7,3/6h[32:43],4,5,,,,,,,,,,,,,,,,,,,,,,,,,,,,5,,,,,,,,,,,,,,,,,,,,,,,,,,,,,,,,
{2}5h[4:1],4h[4:1]/6h[8:3],
{2}3h[4:1]/6h[8:3],2h[4:1]/6h[8:3],
{24}1/6h[2:1],,,,,,3,,,,,,4,6,4,6,4,6,3,5,3,5,3,5,
{16}3<6[8:1],,3,4,3,,8,,6,5,7,5,6>3[8:1],,6,5,
{16}6,,1,,3,4,2,4,3>8[8:1],,3,4,3,,5,,
{16}6,5,7,5,6<1[8:1],,6,5,6,,4,,3,4,2,4,
{16}3<6[8:1],,2,4,3,,8,,6,5,7,5,6>3[8:1],,7,5,
{16}6,,1,,3,4,2,4,3>8[8:1],,2,4,3,,5,,
{16}6,5,7,5,6<1[8:1],,7,5,6,,4,,3,4,2,4,
{8}1>4[8:1],3,7,8<5[8:1],6,1>4[8:1],3,7,
{24}5<8[8:1],,,6,,,3,,,,,,3,5,4,5,4,5,2,5,4,5,4,5,
{48}3,,5,,4,,5,,4,,5,,4,,,3,,,2,,,1,,,8,,,7,,,6,,,5,,,4h[8:1],,,,,,,,,,,,
{4}8b,,,4b,
{16},,,,,,,,,,,,4,,,4,
{96},,,,,,,,,,,,4,,,,,,,,,,,,,,,,,,4,,,,,,,,,,,,,,,,,,4,,,,5,,,,4,,,,5,,,,4,,,,5,,,,4,,,3,,,2,,,1,,,8,,,7,,,6,,,5,,,
{8}4,,(200)3/6,,4h[4:1],,5h[8:1],3h[8:1],
{8}4h[8:1],2h[8:1],8h[4:1],,5,4,3h[4:1],,
{16}4h[8:1],,2h[8:1],,3h[8:1],,1h[8:1],,4,3,5,4,6h[8:1],,4h[8:1],,
{8}5,5,4h[4:1],,6h[8:1],5h[8:1],8h[8:1],1h[8:1],
{16}6,,6,5,4>1[8:1],,,,8,,8,,8,,6,,
{16}4,,2,,8,,6,,3,4,2,6,5,7,3,5,
{24}1b,,,,,,(150)2/5<8[8:1],,,6,,,4,,,1,,,6,5,6,7,6,,
{24}4>1[8:1]/7,,,3,,,5,,,8,,,3,4,3,2,3,,2/5<8[8:1],,,6,,,
{24}4,,,1,,,6,5,6,7,6,,4/7,,5,,3,,3,5,4,6,5,7,
{24}4,6,3,5,2,4,1-4[8:1],,,7,,,5,,,8-5[8:1],,,2,,,4,,,
{8}1-5[8:1],7,4,8-4[8:1],2,5,1-6[8:1],7,
{8}4,8,2,1-5[8:1]/8-4[8:1],2/7,1-3[8:1]/8-6[8:1],,1-5[8:1]/8-4[8:1],
{16},,1/8,,,,2/7,,8-5[8:1],,2,,3,2,1-4[8:1],,
{16}7,,6,7,8-4[8:1],,2,,3,2,1-5[8:1],,7,,4,,
{16}8,,,7,4,,6,,4,5,,,4/5,,,3,
{32}5,,,,2,,,,5,,2,3,4,5,6,7,8,,,,,,7,,,,,,6,,,,
{16},1,1/8,,1/8,,2/7,,3>1[8:1]/6<8[8:1],,4/5,,,,,,
{48}1/8,2/7,3/6,4h[8:1]/5h[8:1],,,,,,,3/6,2-6[48:7]/7,1h[8:1]/8h[8:1],,,,,,,2/7,3/6,4/5,,,,,,,,,,,,,,,7/8,1/6,2/5,3h[8:1]/4h[8:1],,,,,,,2/5,1/6-2[48:7],
{48}7h[8:1]/8h[8:1],,,,,,,1/6,2/5,3/4,,,,,,,,,,,,,,,1/2,3/8,4/7,5h[8:1]/6h[8:1],,,,,,,4/7,3/8,1h[16:5]/2h[8:1],,,,,,,3,4,5h[2:1],,,
{48},,,,8,7,6h[8:1],,,,,,,7,8,1h[16:5],,,,,,,4-8[6:1],3,2h[8:1],,,,,,,3/8,4/7,5/6,,,,,,,,,,,,,,,
{8}5p8[8:1]/8q5[8:1],5<8[8:1]/8<5[8:1],,,,1p4[8:1]/4q1[8:1],1>4[8:1]/4>1[8:1],,
{48},,,,,,,,,,,,7/8,1/6,2/5,3h[8:1]/4h[8:1],,,,,,,2/5,1/6,7h[8:1]/8h[16:5],,,,,,,6,5,4h[16:5],,,,,,,1,2,3h[8:1],,,,,,
{32},5,6,7,8,1,2,3,4,5,6,7,8,1,2,3,4,,,,,,,,2>5[8:1],,,,1,,1,,
{16}8,,7>2[8:1],,6,6,5,,4<7[8:1],,3,3,2,,1>4[8:1],,
{16}8,8,7,,6<1[8:1],,5,5,4,,3<6[8:1],,2,2,1,,
{16}8>3[8:1],,7,7,6,,5<8[8:1],,4,4,3,,2h[4:3],,,,
{64},,,,,,,,,,,,,,,,,,,,,,,,,,,,,,,,,1/3,4/8,5/7,6h[16:15],,,,,,,,,,,,,,,,,,,,,,,,,,,,
{24},,,,,,,,,,,,4,5,3,6,4,5,4,5,3,6,4,5,
{48}4,,5,,3,,6,,4,,5,,4,,5,,3,,6,,4,,5,,4,,,3,,,2,,,1,,,8,,,,,,8,,,,,,
{48}8,,,,,,,,,,,,4/5,,,,,,,,,,,,(75)1/5,2,3,4,5,6,3/7,8,1,2,3,4,1/5,6,7,8,1,2,3/7,4,5,6,7,8,
{48}1/5,2,3,4,5,6,3/7,8,1,2,3,4,1/5,6,7,8,1,2,3/7,4,5,6,7,8,1/5,2,3,4,5,6,3/7,8,1,2,3,4,1/5,6,7,8,1,2,3/7,4,5,6,7,8,
{192}1/5,,,,2,,,,3,,,,4,,,,5,,,,6,,,,3/7,,,,8,,,,1,,,,2,,,,3,,,,4,,,,1b/5,,,,6,,,,7,,,,8,,,,1,,,,2,,,,3/7b,,,,,,,,,,,,8,,,,,,,,,,,,4h[1:0]/8,,,7,,,6,,,5,,,4,,,3,7h[1:0],,2,,,1,,,8,,,7,,,6,,2h[1:0],5,,,4,,,3,,,2,,,1,,,4h[1:0]/8,,,7,,,6,,,5,,,4,,,3,7h[1:0],,2,,,1,,,8,,,7,,,6,,1h[1:0],5,,,4,,,3,,,2,,,1,,,
{192}4h[1:0]/8,,,7,,,6,,,5,,,4,,,3,7h[1:0],,2,,,1,,,8,,,7,,,6,,2h[1:0],5,,,4,,,3,,,2,,1,,,,4h[1:0]/8,,,7,,,6,,,5,,,4,,,3,7h[1:0],,2,,,1,,,8,,,7,,,6,,1h[1:0],5,,,4,,,3,,,2,,,1,,,4h[1:0]/8,,,7,,,6,,,5,,,4,,,3,7h[1:0],,2,,,1,,,8,,,7,,,6,,2h[1:0],5,,,4,,,3,,,2,,,1,,,4h[1:0]/8,,,7,,,6,,,5,,,4,,,3,7h[1:0],,2,,,1,,,8,,,7,,,6,,1h[1:0],5,,,4,,,3,,,2,,,1,,,
(150){32}8h[8:5],,,,,,,,,,,,,,,,,,,,4,3,2,1,8,7,6,5,4,,,,
{16}4/5,,3/7,,6<1[8:1],4,1V37[8:1],,1,,,,4,,2,,
{24}1/4,,,6,,,3,4,5,4>1[8:1],5,6,,,,8,,,8,,,1/8,,,
{16}2/6,,3>8[8:1],5,8V62[8:1],,8,,,,5,,7,,5/8,,
{24}3,,,6,5,4,5<8[8:1],4,3,2v5[8:1],,,,,,,,,8,,,3/7,,,
{16}6<1[8:1],4,1V37[8:1],,1,,,,4,,2,,1/4,,6,,
{48}3,,4,,5,,4>1[8:1],,5,,6,,,,,,,,8,,,,,,8,,,,,,1/8,,,,,,2/6,,,,,,3>8[8:1],,,5,,,
{24}8V62[8:1],,,8,,,,,,5,,,7,,,5/8,,,3,,,6,5,4,
{48}5<8[8:1],,4,,3,,2v5[8:1],,,,,,,,,,,,,,,,,,8,,,,,,3-7[8:1]/6,,,,,,7>2[8:1],,,,,,8,,,8,,,
{16}8,,6,,5,,3/7,,4-8[8:1],5,2,3,1-5[8:1],,1,,
{16}8,,8,,2/7,,3,4,3,5,3,2,3,4,3,1,
{48}3,,,5,,,3,,5,,4,,6,,,5,,,6,,,4,,,6,,,7,,,6,,,5,,,6,,,8,,,6,,,4,,,
{48}6,,4,,5,,3,,5,,4,,3/6,,,,,,1,,,,,,3<6[8:1],,,4,,,2,,,,,,7,,,,,,8,,,,,,
{48}2/7,,,,,,3,4,,2b/5b,,,,,,6,5,,4b/7b,,,,,,3,4,,1b/5b,,,,,,6,5,,4b/8b-4[8:1],,,,,,4-8[8:1]/8,,,,,,
{16},,1,,3,,6<1[8:1],4,1V37[8:1],,1,,,,4,,
{24}2,,,1/4,,,6,,,3,4,5,4>1[8:1],5,6,,,,8,,,8,,,
{16}1-5[8:1]/8,,5,5,5,,8-4[8:1],,4,4,4,,1-5[8:1],,5,5,
{48}5,,,,,,8,,,,,,4,,,4,,,4/5,,,,,,4,,5,,4,,5,,4,,5,,3,,5,,4,,5,,4,,5,,
{48}2,,5,,4,,5,,4,,5,,4,,,3,,,2,,,1,,,8,,,7,,,6,,,5,,,4h[8:1],,,,,,,,,,,,
{4}1-5[8:7],,,1,
{4}1<5[4:1]*>5[4:1],,,(225)4>1[4:1]/5,
{4}6,7,1/8<5[4:1],2,
{4}3,4>1[4:1]/5,6,7,
{4}1/8<5[4:1],2,3,4/5,
{24}6,,,3,,,7,,,,,,1/8,,,,,,1/8,,,,2/7,,
{12},3/6,,4/5,,,3,,,2,,,
{8}1/8,,7,5/6,,2,3/4,,
{12}4-2[8:1]/5,,,5,,,4/5-7[8:1],,,4,,3,
{24},,2,,,,1/8,,,,7,,,,6,,,,3/5,,,3,,,
{8}3,4/6,6,6,3/5,3,3,4/6,
{8}6,6,3/5,3,3,4/5,5,5,
{8}3/4,3,3,4/6,6,6,2/5,2,
{8}2,3/7,7,7,3/6,3,3,4/5,
{8}5,5,4/5,,,6/7,,,
{8}1/8,,,2/3,,,4/5,3,
{24}3,,,3,4,5,6,,,6,,,7,6,5,2,3,4,5,,,7,6,5,
{16}4,,1/8,,3,4,2,6,5,7,3,4,2,6,5,7,
{16}3,4,1,6,5,8,3,4,1,6,5,8,3,5,1,6,
{16}4,8,3,5,1,6,4,8,3,,4/5,,3/4,,2/3,,
{16}1/2,,1/8,,7/8,,6/7,,5/6,,4,4,5,3,5,5,
{48}4,,,6,,,3,,,3,,,4,,,2,,,6,,,6,,,5,,,7,,,3,,,6,,,4,,5,,4,,5,,4,,5,,
{24}3,6,3,6,3,6,2,7,2,7,2,7,1,8,1,8,1,8,2,7,3,6,4,5,
{32}4,3,2,1,8,7,6,5,4,3,2,1,8,7,6,5,4,3,2,1,8,7,6,5-8[32:57],4-1[4:7],,,,,,,,
{1}4b,
{48},,,,,,,,,,,,,,,,,,,,,,,,,,,,,,,,,,,,,,,,,,1/8,2/7,3/6,4/5,,,
{1}1b/2,
{1},
{1},
{1},
(60){4},,,,,
(276),,
||
217
ms
||
LK
(201){1},{8}3,5,4,6,5h[4:1],,6,,4,4,5,3h[4:1],,5h[8:3],,4,
4,,{16},,6,6,{8}4,5,3,4,2h[4:1],,3,,{16}3/4,,,4/5,,,5/6,,
{8}5/6,,,{24}5,6,5,{4}6,4/5,3/5,{8},{24}4,3,4,{8}3,,4/5,,
4/6,,,{16}6,6,{8}4,5,3,4,2h[4:2],,,,1,1,2,8,
3/7,4,6,2,4,,3/5,,6,6,4,5/3h[4:1],,4h[4:1],,3,
3,5,2,6,1,4,3,5,4/6h[4:1],,5,,{4}7/8,1/6,
2q5[4:2]/5,,,8,7p4[4:2]/4,,,1,
2/6h[4:2],,{16}4,3,2,1,8,7,6,5,8,7,6,5,7,6,5,4,6,5,4,3,5,4,3,2,
{1}1h[4:8]/4b,,
{8}6,6-2[8:1],,4,4h[4:1],,1,1-5[8:1],,3,3,,2-5[8:1]/6-1[8:1],,,,
3,3-7[8:1],,5,5h[4:1],,8,8-4[8:1],,6,6,,7-4[8:1]/3-8[8:1],,,,
2/6,,1>4[8:1],5,1/6,,8-3[8:1],3,8/2,,1-6[8:1]/5-2[8:1],1/5,1/5,,7-2[8:1]/3-6[8:1],7/3,
{4}7bq1b[4:5]/3q5[4:5],,,,,,,{16}4,5,4,,
{4}2v5[8:1]/6b-1b[8:1],2/6,8/4b,{8}1/7,2/6,3h[16:1]/5,3h[16:1],3h[16:1]/1,3h[16:1],3h[16:1]/6,3h[16:1],3h[16:1]/4,3h[16:1],
{4}7v4[8:1]/3b-8b[8:1],7/3,1b/5,{8}2b/8,3/7b,4b/6h[4:1],,8b,1b/5b,4-8[8:1],2-5[8:1],4,2,
{4}8x<6[8:1]*v5[8:1],8b>2[8:1]*v3[8:1],8b,{8}5b/6b,4b/7b,8bh[8:1]/3bh[8:1],,1b/6b,1b/6b,{16}7b,8b,7b,8b,6b-3b[8:1],5b,6b,5b,
{8}6b,,2/8,{16}3,4,2,,6,5,{8}7-3[8:1],8,7/1>4[8:1],,1/5w1b[8:1],,Cf/B1/B5/A1/A5,,,,
2h[8:1]/8,8,3/7,4/6,3/5h[8:1],3,2/4,1/5,8h[8:1]/6,6,1/5,2/6,3/7h[8:1],3,4/6,3/5,
2h[8:1]/4,4,3/5,4/6,3/7,{16}2,1,3,,6,5,7,,{8}1/8,2z6[8:3]/7s3[8:3],3/6,,,,,
4/5-8[8:1],,1b,,7h[8:1]/1,1,2/6,3/5,4h[8:1]/6,6,3/7,2/6,1/5h[8:1],1,6/8,1/7,
2/8,3/7,2/6,3/5,4h[8:1]/6h[8:1],,{16}5p2[8:3]/7,5/7,{8},Cf,,,,8w4b[8:1],,8,,
{4}2b-6[8:1]/6b,5-1[8:1],3,{16}8,7,6,5,{8}4/2-5[8:1],2,6-2[8:1],6,{4}1,5/7p4[8:3],
2-5[8:1],,2/6,{16}1,2,3,4,{8}5/7-4[8:1],7,3-8[8:1]*v6[8:1],3,,,{32}5,4,3,2,1,8,7,6,
{4}5b-2[8:1]/4b-7[8:1],5/4-8[8:1],4/5,{16}1/6,2,3,4,{8}5/7-4[8:1],7,3-7[8:1],3,8-4[8:1],8,1,1,
{4}2-5[8:1]/6-1[8:1],2/6,3-8[8:1]/7-4[8:1],3/7,{8}1/5,2/6,3V16[4:1]/7V52[4:1],4/8,3b/7b,,,,
3b/6b-3[8:1],,1/6,{16}2,8,2,,7,1,7,,3,4,2,,6,5,7,,2,1,3,8,4,7,1h[8:1],,5,3,
{8}8b-4[8:1],,1/8,{16}2,6,2,,8,4,8,,3,4,2/5,,,4/7,,,1/8,,{32}1,2,3,4,5,6,7,8,1,2,3,4,5,6,7,8,
{8}1-5[8:1]/Cf,,,,1/8,{16}2,6,2,,8,4,8,,2,1,2,,3/8,,6,5,,3,4,,{8}2/5,
7h[4:4]/1,1,1,1,{32}1,2,3,4,5,6,,8,{48}1,2,3,4,5,6,,8,1,2,3,4,{1}5b-1[4:3],
5bh[1:1],{4}1>4<7[4:2],4<7b[4:1],7>2b[4:1],2,
{8}4b-8-6[4:1],4,3,2,1-5-3[4:1],1,5,6,{4}7>2>5b[2:1],2>5[4:1],5<8[4:1],8,
{8}2-4[8:1],1-5[8:1],2,1,8-4[8:1],7-5[8:1],8,7,1-3[8:1],1-7[8:1],1-5[8:1],,,,1-3-5-7b[8:3]/7,,
B3/B4f/B5,,,,8,8,7>5[8:3],7,B2/B3f/B4,,,,{16}8,7,8,,6,5,7,,
{4}4/8>6[4:2],3<6[4:1],6q3b[4:1],3<1[4:2],E5f/B4/B5,,3,2,
8/1<3[4:2],6>3[4:1],3p6b[4:1],6>8[4:2],E5f/B5/B4,,6,7,
{8}7-4[8:1],2-6[8:1],7,2,1-6[8:1],5-1[8:1],1,5,7-4[8:1],3-7[8:1],7,3,8b,,{16}2/8-4-8b[4:1],3/7,4/6,,
{8}1b,1b-5-1b[4:1],,7b,7b-3-7b[4:1],,2b,2bh[4:1],,8,8,8,{16}2,3,4/8,7,6/1-5[8:1],2,3/7,6,
{32}5/1b>8[4:13],Cf,,,{8},{4},,,{1},
,,
{2}1>8[4:13]/8,C,,C,
,C,,C,
{8}3x/7x,4,4/6,5,2x/4x,3,3/7,6,4x/6x,4,3/7,6,2/5,3,3/7,6,
3x/5x,3,4/7,6,2/5,3,3/7,6,2x/5x,2,3/4,5,4/6,4/6,3/5,3/5,
1b,,,,{16}2,5,2,5,3,6,3,6,4,7,4,7,5,6,5,6,4,5,4,5,3,4,3,4,
2,1,3,8,4,7,5,6,4,5,4,5,3,6,2,7,{24}1,8,1,8,1,8,1,8,1,8,1,8,1,8,1,8,1,8,1,8,1,8,1,8,
{2}1b,,5h[8:7]/4,1bh[8:3],
{4}1b-6b[8:1]/5-2[8:1],1/5,{16}3/7,4/8,1/5,2/6,3/7,4/8,1/5,2/6,{4}3>8[8:1]/7<4[8:1],3/7-3[8:1],7/1-5[8:1],1/5,
{16}2,4,3,7,5,6,1,4,3,8,5,6,2,7,4,5,1b,,,4/7,,,3/5,,{4}3/5w1[8:1],5,
3-8[8:1]/7,3/6-1[8:1],{8}6/4-1[8:1],3,4/5-8[8:1],6,5/2-6[8:1],,1/2,,3/7,{16}4,8,3,7,2,6,
1>4[8:1],,,,5,6,7,8,1<6[8:1],,,,4,3,2,1,8,4,8,4,1,5,1,5,{32}2,3,4,5,6,7,8,1,{4}2b/6,
8b-3b[8:1]/4-7[8:1],8/4,{16}6/2,5/1,8/4,7/3,6/2,5/1,8/4,7/3,{4}6<1[8:1]/2>5[8:1],6/2-6[8:1],2/8-4[8:1],8/4,
{16}7,5,6,2,4,3,8,5,6,1,5,3,{8}4b,2b/6,{4}8b-3[8:1]/4-7[8:1],4/8,1b<6[8:1]/5>2[8:1],1/5,
{8}1-5[8:1]/5,1,1/7-3[8:1],7,7/2-6[8:1],2,2/8-4[8:1],8,8/5-1[8:1],5,5/6-2[8:1],6,6/7<4[8:1],7,7/8,,
{16}2b,1,2,1,2,3,2,3,4,3,4,3,4,5,4,5,{8}4b,{32}7,6,5,4,{8},{32}1/2,3,4,5,{8},7b/8b,1b/6b,,
2/E7/D7,2/E6/B5,,8/E3/D3,8/E4/B4,,2/E7/B6,2/D6/A5,,8/E3/B3,8/D4/A4,,1>4[8:1]/7<4[8:1],,,,
8/E4/B4,8/E3/D3,,{16}1b/E7/B7,2b,{8}3b/E6/B5,,8/E4/B4,8/E3/D3,,{16}1b/A6/B6,2b,{8}3b/A5/E5,,1>4[8:1]/7<4[8:1],,,,
2/6,,{16}1,8,1,8,1,8,1,8,1,8,1,8,2,6,3,5,4,7,3,8,2,7,3,6,4/5,,{24}4bqq5b[8:27]/5b,3b/6b,2b/7b,
{1}1b/8bqq1[4:13],,
,,
{8}4b/8bh[4:1],,6,6h[4:1],,4,4h[4:1],,2,2h[4:1],,1,1,,3/8,,
4/7,4/7,{16}6,5,6,5,6,,3,4,3,,2/5,,3,4,,6,5,,{8}1/8,1>4[8:1]/8<5[8:1],,1b/8b,,
{16}7,8,6,1,7-3[8:1],8,6,1,{8}7,,2/4,3/5,4/6,{24}7,5,7,5,,,2,4,2,4,,,{16}1/3,1/3,{4}1-7[8:1]/3-7[8:1],
1b-5b[8:1]/3b-5b[8:1],1b/3b,{8}8,{12}7h[12:1]/5h[12:1],,2h[12:1]/4h[12:1],{8},{12}5b/3,5b/3,5b/3,{16}4h[32:1],4h[32:1],4h[32:1],4h[32:1],{4}4bw8[8:1],4b,
{16}2,6,2,6,1,5,2,6,{12}3b/7b,,2/8b,2/8b,2/8b,2/8b,{32}1b,2,3,4,7,,,,1b,2,3,4,6,,,,8b,7,6,5,8b,7,6,5,8b,7,6,5,8b,7,6,5,
{4}1bv3b[4:3]*s5b[4:3],,,,,1/8,2/7,3/6,
{16}2b,4b,3b,8b,6b,7b,1b,3b,2b,7b,5b,6b,3b,5b,2b,6b,{24}1b,7,1,7,,,8b,2,8,2,,,1b,1,1,1,1,1,1-5b[16:1],1,1,1,1,1,{64}1b/B2f/B3f/B4f/B5f/B6f/B7f/B8f,Cf,,,,,,,,,,,,,,,{4},,,
{1},,,
(60){4},,,,,,
(300){4},,,,{8},
||
900
ms?
||
raputa
(230){1}8h[8:41]/1-4>3-6>5-8<7-2<1[2:7],
{1},
{1},
{1},
{8}1,,,2,,,3,,
{8},4h[8:21],,,,,,,
{1}C1h[1:1],
{4}B1/B2,,,8-4b[8:1],
{16}8b,,,,3/5,,,2,4<7[8:1],,4,,1-5[8:1],,1,,
{16}8,,,,4/6,,,7,5>2[8:1],,5,,8-4[8:1],,8,,
{16}1,,,,3/5,,,2,4,,4,,3/5h[4:1],,,,
{16}4,3,2,1,8,7,6,5,8,7,6,5,8,7,6,5,
{16}4b,3,2,1,8,7,6b,5,8,7,6,5,8,7,6b,5,
{16}1,2,3b,4,5b,6,7,8,5b,6,7,8,5,6,7b,8,
{16}1,2,3b,4,5,6,7,8,5,6,7b,8,5,6,7,8,
{8}1h[4:1],,5,2h[16:1]/6h[16:1],,4/8,4/8-4b[8:1],,
{16}1h[16:1]/8b,,,,3/5,,,2,4<7[8:1],,4,,1-5[8:1],,1,,
{16}8,,,,4/6,,,7,5>2[8:1],,5,,8-4[8:1],,8,,
{16}1,,,,3/5,,,6,4,,4,,4h[4:1]/5,,,,
{16}5,6,7,8,1,2,3,4,1,2,3,4,1,2,3,4,
{16}5b,6,7,8,1,2,3b,4,1,2,3,4,1,2,3b,4,
{16}8,7,6b,5,4b,3,2,1,4b,3,2,1,4,3,2b,1,
{4}4/8-4[8:1]-2[8:1]*-4[8:1]-6[8:1],,,1/7,
{8}4/8,8,3/7,3,2/6,6,1/5,1,
{1}4h[4:3]/8h[8:3],
{1}1h[8:3]/3h[4:3],
{8}3h[8:3],,,4h[8:3],,,5h[4:3],,
{8},6h[8:5],,,,,,,
{1}7h[4:3]/8h[8:3],
{1}6h[4:3]/7h[8:3],
{8}5h[8:3],,,4h[8:3],,,3h[8:3],,
{32},,,,,,,,,,,,,,,,E2,E1,E8,E7,E6,E5,E4,E3,E2,,,,,,,,
{8}4h[4:1],,,4h[4:1],,,4,4,
{8}3h[4:1]/5h[8:1],,5,3h[8:1]/5h[4:1],,3,3/5,,
{8}5h[4:1],,,5h[4:1],,,5,5,
{8}4h[8:1]/6bh[4:1],,4,4bh[4:1]/6h[8:1],,6,4/6b,,
{8}4/5,5/4v3[8:1],,5v6[8:1],,,,2/7,
{16}1,8,1,8,1,,,,,,7,,8,,7,,
{8}2,1-6[8:1],2,1-4[8:1],,1,,6h[8:1],
{12}4,4,5,3,3,6,2,2,7,1,1,8,
{8}2-5[8:1],7-4[8:1],2,7,,1,8,7<5[8:1],
{8}1,7,,2>4[8:1],8,2,7,6h[4:1],
{16}5,,5,,,,4b/7b,,,,3,4,5,6,7,8,
{16}1/5,4,3,2,1,4/8,3/7,2/6,1/5,,4<7[8:1]/8>3[8:1],,,,4/8,,
{8},,3/6,4-1[8:1]/5-8[8:1],,4/5,,2b/7b,
{16},,6,5,4,3,2,1,4/8,5,6,7,8,1/5,2/6,3/7,
{384}4/8,,,,,,,,,,,,,,,,,,,,,,,,,,,,,,,,,,,,,,,,,,,,,,,,1-5[8:1],,,,,,,,,,,,,,,,,,,,,,,,,,,,,,,,,,,,,,,,,,,,,,,,,,,,,,,,,,,,,,,,,,,,,,,,,,,,,,,,,,,,,,,,,,,,,,,,1/4,,,,,,,,,,,,,,,,,,,,,,,,,,,,,,,,,,,,,,,,,,,,,,,,,,,,,,,,,,,,,,,,,,,,,,,,,,,,,,,,,,,,,,,,,,,,,,,,2/6,,,,,,,,,,,,,,,,,,,,,,,,,,,,,,,,,,,,,,,,,,,,,,,,,2-6b[384:47],,,,,,,,,,,,,,,,,,,,,,,,,,,,,,,,,,,,,,,,,,,,,,,,,,,,,,,,,,,,,,,,,,,,,,,,,,,,,,,,,,,,,,,,,,,,,,,
{8}C1f/8b,8b,8b,8b,2b/8b,2b/8b,2b/8b,2b/8b,
{8}1>3[8:1],8,1,7<5[8:1],1,7,8>2[8:1],7,
{16}8,,5,,5,,2/5,,3,4,3,4,3-1[8:1],,5,,
{8}3,8<6[8:1],3,8,3<5[8:1],8,3,7-3[8:1],
{8}3,7,1b,,2-6[8:1],1,2,1<7[8:1],
{8}2,1,3<5[8:1],1,3,7,7,4/7,
{16}6,5,6,5,6-2[8:1],,4,,6,,5>3[8:1],,7,,5,,
{8}7>1[8:1],5,7,2-6[8:1],4,2,8b,,
{8}7-4[8:1],5,7,3-8[8:1],5,3,6-3[8:1],1,
{16}6,,2,,2,,2/8,,7,1,7,1,7-5[8:1],,8,,
{8}7,2-8[8:1],4,2,6-4[8:1],1,6,2,
{24}2,,,2,,,1b/8b,,,,,,(240)5/7,,,,5/7,,,,5/7,,,,
{6}3/5,3/5,3/5,(250)1/3,1/3,1/3,
{6}1/8,1/8,1/8,(260)1/8,2/4,4/5,
{6}5/7,1/8,2/4,(270)2h[12:1]/4h[12:1],1h[12:1]/8h[12:1],5h[12:1]/7h[12:1],
{6}4h[12:1]/5h[12:1],2h[12:1]/4h[12:1],1h[12:1]/8h[12:1],1bh[4:27]/8b<8<8<7-5>4-2<1-7<6-4>3-1<8-5[4:26],,,
{1},
{1},
{1},
{1},
{1},
{1},
{1},
{2},(230)5h[2:3]/6>5-8<7-2[4:5],
{1},
{2},3xh[2:7]/4>3-6>5-8[4:5],
{1},
{8},,,,B5/B6/E6/D6,,,E4,
{8},,B1/B2/E2/E3,,,B7/B8/D8,,,
{2}B5/A5/B6/E6,C1/4h[4:7],
{2},6h[4:1],
{4}5h[4:1],,2bh[4:1]/6,5h[4:1],
{8}4h[4:1],,6,6,4,5,5,4,
{4}3v4[4:1],5,6bh[4:1],4h[4:1],
{8}5h[4:1],,3,3,5,4,4,5,
{4}6v5[4:1],4,2bh[4:1],4h[4:1],
{8}3h[4:1],,5,5,3,4,4,3,
{4}2v4[4:1],5,6p2<8b[16:9],5,
{4}4,3,3h[4:3]/7h[2:1],,
{16},,,,8-4b[8:1],,,,8b,,,,3/5,,,2,
{16}4<7[8:1],,4,,1-5[8:1],,1,,8-3b[8:1],,,,3/8,,,4,
{8}5v8[8:1],5,2,2,1-6-8[4:1],1,4,4,
{8}5,5,1/5,1/5,2/4,2/4,4/5,4/5,
{8}5h[16:1]/7h[16:1],5h[16:1]/7h[16:1],6h[16:1]/7h[16:1],6h[16:1]/7h[16:1],6/7<4[8:1],,1/7,2-6[8:1],
{16},,1/2,8,7-3[8:1],,,,4/7,,2h[4:1],,,,5,,
{16}3/6,,3/6,,1/8h[4:1],,,,1,2,3,4,5/7,4,3,2,
{16}1/8,7,6,5,2/4,5,6,7,1/8,2,3,4,5/7,4,3,2,
{16}1/8,7,6,5,3/4,5,6,7,1/8-3[8:1],,,,1,,2,,
{8}4-7[8:1],2,1,,1v6[8:1],8,1,7,
{8}5v2[8:1],6,5,,8/1-6[8:1],,8,7,
{8}5-2[8:1],7,8,,8v3[8:1],1,8,2,
{8}4v7[8:1],3,4,,8h[4:1],,6,6h[4:1],
{8},4,4h[4:1],,2,2h[4:1],,1,
{16}1,,,,3/7,,,,6,4,6,4,6,,2,5,
{16}2,5,2,,7-5-8-4-1-3b[4:3],8,7,8,7b,,,,,,,,
{8},,,,(230)4/1-5[8:1],1,7,7h[4:1],
{8},4,4,2h[4:1]/6,,8,3/7,3/7,
{16}6,6,4,4,5,5,3,3,4<7[8:1],,1,,2,,2h[4:1],,
{8},8,8,5/7h[4:1],,1,2/6,2/6,
{16}3,3,5,5,4,4,6,,3b/7b,,2,1,2,,3/8,,
{16}2,1,2,,3/7,,2,1,2,,3/6,,1,8,1,8,
{16}1,2,3,4,5/6,7,8,1,3,4,3,4,3h[8:1],,7,5,
{16}6,5,7h[8:1],,2,4,3,4,2h[8:1],,5,3,5,3,5,3,
{16}4,4,5,3,4,4,5,3,6b-8[8:1],,4-6[8:1],,6,,4,,
{16}1,2,3,4,5/8,1,2,3,7-5[8:1],,5-1[8:1],,7,,2,,
{16}2,3,4,5,2/6,1,8,7,3b-1[8:1],,5-3[8:1],,3,,5,,
{16}8,7,6,5,1/4,8,7,6,2-4[8:1],,4-8[8:1],,2,,7,,
{16}7,6,5,4,3/8,1,2,3,4/8b,,6,5,6,,1/5,,
{16}3,4,2,,5/6,,7,8,7h[8:1],,2,8,2,8,2,8,
{16}1,1,2,8,1,1,2,8,3,7,3,7,4,6,4,6,
{16}3,5,3,5,2,6,2,6,1h[16:1],,2/8h[16:1],,3h[16:1]/7,,4/6h[16:1],,
{8}8h[16:1],1h[16:1]/7,2/6h[16:1],3h[16:1]/5,6bh[4:15]/4b-1>2-7>8-5<6-3<4[2:7],,,,
{1},
{1},
{1},
{8},,,,6,6,5/7h[8:3],,
{8},5,4/6,,3,3,2h[8:3]/4,,
{8},4,3/5,,6,6,4/7h[8:3],,
{8},8,8z4[2:1],,,,,,
{8},,3/5,,6,6,5,7h[4:1],
{16},,4,6,4,6,4,,3/5,,3,,4,,2h[4:1],,
{16},,5,3,5,3,5,,4/6,,6,,5,,7h[4:1],,
{16},,5,6,4,6,4,,3/5,,3,,4,,2h[4:1],,
{16},,4,3,5,3,5,,4/6,,4h[16:1]/6h[8:1],,,,3/5,,
{8}3h[8:1]/5h[16:1],,4/6,4h[16:1]/6h[8:1],,4/5,4h[16:1]/5h[8:1],,
{8}4h[8:1]/6h[16:1],,3h[8:1]/7h[16:1],,2/8,2,3/4,2,
{8}1/7,7,5/6,4,3b/5b,3/5,2/6,2/6,
{16}1/7,,1/7,,8,2,8,2,(230)1b<6[8:1],,2,,3,,4>1[8:1],,
{8}5,6,7<4[8:1],8,1,2<7[8:1],3,4,
{8}5h[16:1],5h[16:1],(238)5b<8[8:1],4,3,2>5[8:1],1,8,
{8}7>2[8:1],6,5,4<7[8:1],3,2,1b,,
(246){8}2b-7[8:1],3,4,5-2[8:1],6,7,8-5[8:1],1,
{8}2,3-8[8:1],4,5,6h[16:1],6h[16:1],(252)6b-1[8:1],5,
{8}4,3-6[8:1],2,1,8-3[8:1],7,6,5-8[8:1],
{8}4,3,2b,,(258)6b>5-3[8:1],7,8,1<8-6[8:1],
{8}2,3,4>3-1[8:1],5,6,7<6-4[8:1],8,1,
{8}2h[16:1],2h[16:1],(266)2b>3[16:1]-5[16:1],1,8,7>8[16:1]-2[16:1],6,5,
{8}4<5[16:1]-7[16:1],3,2,1,8,7,1/6bh[4:1],,
(288){16}8b,1,2,3,8,1,2,3,8,1,2,3,8,1,2,3,
(298){16}4x/8b,7,6,5,8,7,6,5,8,7,6,5,8,7,6,5,
(308){384}4x/8b,,,,,,,,,,,,,,,,,,,1,,,,,,,,,,,,,,,,,,,2,,,,,,,,,,,,,,,,,,,3,,,,,,,,,,,,,,,,,,,4,,,,,,,,,,,,,,,,,,,,8,,,,,,,,,,,,,,,,,,,1,,,,,,,,,,,,,,,,,,,2,,,,,,,,,,,,,,,,,,,3,,,,,,,,,,,,,,,,,,,4,,,,,,,,,,,,,,,,,,,,8,,,,,,,,,,,,,,,,,,,1,,,,,,,,,,,,,,,,,,,2,,,,,,,,,,,,,,,,,,,3,,,,,,,,,,,,,,,,,,,4,,,,,,,,,,,,,,,,,,,,8,,,,,,,,,,,,,,,,,,,1,,,,,,,,,,,,,,,,,,,2,,,,,,,,,,,,,,,,,,,3,,,,,,,,,,,,,,,,,,,4,,,,,,,,,,,,,,,,,,,,
(318){384}5x/8b,,,,,,,,,,,,,,,,,,,7,,,,,,,,,,,,,,,,,,,6,,,,,,,,,,,,,,,,,,,5,,,,,,,,,,,,,,,,,,,4,,,,,,,,,,,,,,,,,,,,8,,,,,,,,,,,,,,,,,,,7,,,,,,,,,,,,,,,,,,,6,,,,,,,,,,,,,,,,,,,5,,,,,,,,,,,,,,,,,,,4,,,,,,,,,,,,,,,,,,,,8,,,,,,,,,,,,,,,,,,,7,,,,,,,,,,,,,,,,,,,6,,,,,,,,,,,,,,,,,,,5,,,,,,,,,,,,,,,,,,,4,,,,,,,,,,,,,,,,,,,,8,,,,,,,,,,,,,,,,,,,7,,,,,,,,,,,,,,,,,,,6,,,,,,,,,,,,,,,,,,,5,,,,,,,,,,,,,,,,,,,4,,,,,,,,,,,,,,,,,,,,
(339){1}3>2-5>4-7<6-1<8-3[2:14]/7-4<5-2>3-8>1-6<7[2:14],
{1},
||
filler?
{1},
{1},
{1},
{1},
{1},
{1},
{1},
{1},
(365){4},
||
tuna
(88.8){1},
{128}8<8[0.6757##4.2255],1,2,,,,,,,,,,,,,,,,,,,,,,,,,,,,,,(78.8),,,,,,,,,,,,,,,,,,,,,,,,,,,,,,,,,,,,,,,,,,,,,,,,,,,,,,,,,,,,,,,,(88.8),,,,,,,,,,,,,,,,,,,,,,,,,,,,,,,,
{1},
{4}1-4[4:1],,(78.8)6,(68.8)8<5[0.8721##0.1689],
(88.8){64}1,2,3,4,,,,,4h[2:1],,,,,,,,,,,,,,,,,,,,,,,,5,,,,,,,,5,,,,,,,,3h[16:1]/6h[16:1],,,,,,,,,,,,,,,,
{64}6,,,,5,,,,4,,,,3,,,,6<3[4:1]>6[4:1],,,,5,,,,4,,,,3,,,,,,,,,,,,,,,,4,5h[64:11],,,,,,,,,,,,,,,,,,,
{64}3,,,,4,,,,5,,,,6,,,,3>6[4:1]<3[4:1],,,,4,,,,5,,,,6,,,,,,,,,,,,,,,,5,4h[64:11],,,,,,,,,,,,,,,,,,,
{64}5,,,,4,,,,3,,,,2,,,,6<3[4:1]>6[4:1],,,,5,,,,4,,,,3,,,,,,,,,,,,,,,,4,5h[64:11],,,,,,,,,,,,,,,,,,,
{32}3,,4,,5,,6h[8:1],,,,8,,1,,2h[8:1]/6b,,,,4,,4,,3/5,2/6,1/7,,1/7,,6,,2,,
{32}3/5V31[8:1],,5,,5,,5,,5/7,,7,,7,,7,,2/5,,3,4,3,4,3,4,2,,1,,8,,7,,
{48}6/4V68[8:1],,,4,,,4,,,4,,,2/4,,,2,,,2,,,2,,,1,8,7,6,5,4,1,8,7,6,5,4,8,1,2,3,4,5,8,1,2,3,4,5,
{32}6V42[8:1],,6,,6,,6,,6/8,,8,,8,,8,,2,4,3,5,4,6,5,7,4,6,3,5,2/6h[16:1],,,,
{64}1b,,4,,3,,4,,3,,4,,8b,,4,,3>6[8:1],,4,,3,,4,,7b,,4,,3,,4,,3,,,,,,,,,,,,1,8,1,8,1,,,,1/8,,,,2h[32:1]/7h[32:1],,,,,,,,
{96}8b,7,6,5,,,,,,7b,6,5,4,,,,,,6b,5,4,3,,,8,,8,,8,,8,,,,,,1b,2,3,4,,,,,,2b,3,4,5,,,,,,3b,4,5,6,,,1,,1,,1,,1,,,,,,8,,,,,,,,,,,,6,,,,,,,,,,,,
{96}6b,5,4,3,,,,,,7b,6,5,4,,,,,,8b,7,6,5,,,1,,1,,1,,1,,,,,,4b,5,6,7,,,,,,3b,4,5,6,,,,,,2b,3,4,5,,,8,,8,,8,,8,,,,,,7,,,,,,6,,,,,,4,,,5,,,3,,,4,,,
{16}2,5,7,4,2,6,8,1,3,5,6,4,(78.8)8,5,6,2,
{48}4,,,5,,,(68.8)6,,,1>4[1.1671##0.1689],,,(58.8)2,,,(48.8)6,,,(38.8)8,,,(88.8)8,7,6,5h[2:1],,,,,,,,,,,,,,,,,,,,,,,,
{16}C1,,,,,,,,,,,,4>5[2:1]/5<4[2:1],3/6,2/7,,
{16}A4/A5/D5f,,,,,,,,,,,,4/6,3h[16:1]/7h[16:1],,,
{32}2b,,1-5[16:1],,4/6,,2,4,3,4,1,,6,,7,,7-1[16:1],,4,,6,5,6,,4/7-5[16:1],,3,,3,,3,,
{16}7/2-8[16:1],1,1,1,5/2-4[16:1],4,4,5,2-7[16:1]/6-3[16:1],7,8,1,2/6,,8,,
{32}1,4,1,4,2,4,2,4,3,4,3,4,4,4,4,4,5,4,6,4,7,4,8,4,1/5,2/6,3/7,4/8,1b/5b,,,,
{32}5/7,,1/8-4[16:1],,2/4,,7,5,6,5,8,,3,,2,,2-7[16:1]-2[16:1]/6-3[16:1]-6[16:1],,1/7,,2,4,3/5,,2/6,,,,,,,,
{24}4b/8b,,,,,,A5/E6f/A6/2b,,A3/E4/A4/7b,,B4/B5/E5f/1b,,1,1,1,3,3,3,5,5,5,7,7,7,
{16}2-5[16:1],5-8[16:1],8-4[16:1],4-1b[16:1],,,,,7-4[16:1],4-1[16:1],1-5[16:1],5-8b[16:1],,,,,
{16}2b,,1,,7-4[16:1]/8-3[16:1],5/6,3/4,1/2,7/8,,,,,,1h[1:0]/5h[1:0],,
{48}1/5b,2,3,4,5,6,7,8,1,2,3,4,1b/5,6,7,8,1,2,3,4,5,6,7,8,1/5b,2,3,4,5,6,7,8,1,2,3,4,1b/5,6,7,8,1,2,3,4,5,6,7,8,
{48}1/5b,2,3,4,5,6,7,8,1,2,3,4,1b/5,6,7,8,1,2,3,4,5,6,7,8,5/1>5[8:1],,,,,,2/6,,,,,,7,,,,,,8h[1:0],,,,,,
{96}4b/8,,7,4h[1:0],6,,5,,4,,3,,2,,1,,8,,7,,6,,5,,4/8b,,3,8h[1:0],2,,1,,8,,7,,6,,5,,4,,3,,2,,1,,4b/8,,7,4h[1:0],6,,5,,4,,3,,2,,1,,8,,7,,6,,5,,4/8b,,3,8h[1:0],2,,1,,8,,7,,6,,5,,4,,3,,2,,1,,
{96}4b/8,,7,4h[1:0],6,,5,,4,,3,,2,,1,,8,,7,,6,,5,,4/8b,,3,8h[1:0],2,,1,,8,,7,,6,,5,,4,,3,,2,,1,,5/8,,,,5,,,,5,,,,4/6,,,,,,,,,,,,1,,,,1,,,,1,,,,2/8,,,,,,,,,,,,
{48}1/5b,2,3,4,5,6,7,8,1,2/6b,3,4,5,6,7,8,1,2,3/6b,5,4,3,2,1,4b/8,7,6,5,4,3,2,1,8,3b/7,6,5,4,3,2,1,8,7,3b/6,4,5,6,7,8,
{48}1/5b,2,3,4,5,6,7,8,1,2/6b,3,4,5,6,7,8,1,2,3/6b,5,4,3,2,1,C1f/B3/A3/E4/8b,,,,,,C1f/B6/E6/A6/2b,,,,,,C1f/B2/A2/E3/7b,,,,,,C1f/B4/B5/E5/1b,,,,,,
{1}8-4[4:3],
{1}8w4[2:1],
{8}C1h[8:1]/7,7<3[16:3]<7[16:3],8,1h[8:3],,,,,
{8}C1h[8:1]/2,2>6[16:3]>2[16:3],1,8h[8:3],,,,,
{8}C1h[8:1]/7,7>4[16:3]>7[16:3],1/8,2h[8:3],,,,,
{8}C1h[8:1]/2,2,1h[16:9]/8,8-4b[1.3514##0.1689],7h[16:5],,,8bx,
(177.6){8}1b-4[8:1],2b,A5,7b-2[8:1],6b,A3,4b-1[8:1],5b,
{8}D8,6b-4[8:1]-7[8:1]-3[8:1],5b,B4,3,,1,,
{8}1b-6[8:1],2b,A5,4b-1[8:1],5b,A7,6b-1[8:1],5b,
{8}A2,3b,4b-1[8:1]-3[16:3]*-7[8:1]-5[16:3],C1,,,,,
{8}2-6[8:1],2,1-5[8:1],1,8-4[8:1],8,7-3[8:1],7,
{8}6-2[8:1],6,5-1[8:1],5,4,4,3/5,3/5,
{32}2,,4,,2,,4,,3,,3,,3,,3,,1,8,7,6,4,,4,,1,2,3,4,8,,8,,
{1}C1f,
{1}2q3[2:7]/7p6[2:7],
{1},
{1},
{1},
{4},1>4[16:1]/8<5[16:1],A1/D1f/A8,7<4[16:1]/8>3[16:1],
{4}A7/A8/D8f,1<6[16:1]/2>5[16:1],A1/A2/D2f,1>4[16:1]/8<5[16:1],
{4}A1/D1f/A8,4>1[16:1]/5<8[16:1],A4/A5/D5f,2/8,
{32}1,1,1,1,1,1,1,1,1,1,1,1,1,1,1,1,1,2,3,4,5,6,7,8,1b/5b,,,,,,,,
{24}1/8h[1:0],7,6,5,4,3,2/8,3,4,5,6,7,1/8,7,6,5,4,3,2/8,3,4,5,6,7,
{24}1h[1:0]/8,2,3,4,5,6,1/7,6,5,4,3,2,1/8,2,3,4,5,6,1/7,6,5,4,3,2,
{24}1/8h[1:0],7,6,5,4,3,2/8,3,4,5,6,7,1h[1:0]/8,2,3,4,5,6,7/1-5b[8:1],6,5,4,3,2,
{4}1b<6b[8:1]*>4b[8:1],1bw5b[8:1],1b,3bh[4:1]/7b,
{32}4,5,3,2,4,5,3,2,5,6,2,1,5,6,2,1,8,,,,8,,,,3/7,,,,3/7,,,,
{32}5,4,6,7,5,4,6,7,4,3,7,8,4,3,7,8,1,,,,,,2/8,,,,,,4/6,,,,
{8}4/5,4,3/4,4,4/7,4,1/4,4,
{16}4,5,5,5,3,5,5,5,2,5,5,5,1bh[4:1],,,,
{12}8-4[1:2],7,6,7,6,7,5,7,6,7,6,7,
{12}8,7,6,7,6,7,5,7,6,7,8,6,
{12}8,,,,3,3,2h[4:1]/4,,,1-5[1:1],2,3,
{12}2,3,2,4,2,3,2,3,2,1,,,
{48},,,,,,,,,,,,1b/5,2/6,3/7,4/8,1h[12:5]/5,6,7,8,,2,3,4,5,6,7,8,,2,3,4,5,6,7,8,,2,3,4,5,6,7,8,1,2,3,4,
{24}A7/D8,E7,B6,B5,E5,A4,A3/D4,E3,B2,B1,E1,A8,A6/D6,E7,B7,B8,E1,A1,A2/D2,E3,B3,B4,E5,A5,
{16}6,6,8,8,1,1,3,3,5,5,4,4,8-6[8:1]-2[8:1]-4[8:1],1,7,2,
{32}8,,,,5,,,,5,,,,5bh[4:1],,,,,,,,1b,4/8,3/7,2/6,1h[4:1]/5,,,,,,,,
{32}5b<8[32:3],,,,,,,,1,2,3,4,1,2,3,4,5/1b<6[32:3],,,,,,,,5,4,3,2,5,4,3,2,
{32}1/5b<8[32:3],,,,,,,,1,2,3,4,1,2,3,4,1b/5,,,,,,,,8b,,8b,,8b,,8b,,
{6}1/7,2/4,4/5,5/7,1/8,2/7,
{96}7,,,,5,,,,6,,,,,,,,3,,,,,,,,3,,,,,,,,5,,,,,,,,5,,,,,,,,4/6,,,,,,,,,,,,2/8,,,,,,,,,,,,8b,,,7,,,6,,,5,,,4,,,,,,,,,,,,
{32}2,3,4,5,6,7,8,1,2,3,4,5,1,2,3,4,7,6,5,4,3,2,1,8,7,6,5,4,8,7,6,5,
{96}2,,,3,,,4,,,5,,,6,,,7,,,8,,,1,,,2,,,3,,,4,,,5,,,6,,,7,,,8,,,1,,,2b,,,,7b,,,,2b,,,,7b,,,,2b,,,,7b,,,,2,,,,6,,,,2,,,,6,,,,2,,,,6,,,,
{96}3,,,3,,,5,,,4,,,8,,,8,,,6,,,7,,,1,,,1,,,3,,,2,,,7,,,7,,,5,,,6,,,4,,,5,,,4,,,5,,,4,,,5,,,4,,,5,,,4/6,,,5/7,,,6/8,,,7,,,8,,,1,,,2/6,,3/7,,4/8,,
(78.8){16}1h[128:107]/5,,,,,,,,(58.8),,,,3,,,4,
(68.8){24}4,,,,,,,E6,,,,,(58.8)E5,,,,,,(48.8)E4,,,,,,
{96}D7,E7,B6,B3,E3,D3,,,,,,,,,,,,,,,,,,,,,,,,,,,,,,,,,,,,,,,,,,,,,,,,,,,,,,,,,,,,,,,,,,,,,,,,,,,,,,,,,,,,,,,,,,,
{1},
{1},
{1},
E
