&title=夢花火
&artist=豚乙女
&first=0
&des=FlowErCaaaT
&lv_6=14+
&inote_1=
&inote_6=(186)
{1},
{8}2/5,,,7/4,2/5,,,7/5,3/5,2,6/4,7,1-5[8:1]/8-4[8:1],,1/8,,
{8}2/6,,,7/3,1/5,,,7/4,2/5,7,2/5,1,2/6,3b,3b,,
{8}1/6,,,3/8,1/6,,,3/8,1/6,5,1/6,3,1-5[8:1]/7-4[8:1],,1/7,,
{8}2/6,,,8/4,2/6,,,6/4,6/4,2/8,3/5,7/1,4/6,,4b/5b,,
{16}7/2-4[8:1],,,,8/2-6[8:1],,,8,2-8[8:1],,7-4[8:1],,2-4[8:1],,7,,
{8}2,8,7,6,5w1[8:1],,5,,
{16}3/7-5[8:1],,,,1/7-3[8:1],,,1,7-1[8:1],,2-6[8:1],,7-4[8:1],,2,,
{8}7,8,1,{16}2,3,{8}4w8[8:1],,4,,
{16}6/2-4[8:1],,,,8/2-5[8:1],,,7,2-6[8:1],,7-4[8:1],,2-5[8:1],,7,,
{8}2,8,7,6,5w1[8:1],,5,,
{16}3/7-5[8:1],,,,1/7-4[8:1],,,2,7-3[8:1],,2-6[8:1],,7,,2,,
{16}8,,5,5,8,,3,3,1,2,8,3,7,4,6,5,8-6[8:1],,,2,8-4[8:1],,1,,
{16}8/1b-4[8:1]*>4[8:1],,,,,,,,
{8}8<5[8:1],2,8-4[8:1],1,8b,,,,
{16}1-3[8:1],,,8,1-5[8:1],,7,,1/6-1[8:1],,6,,3-8[8:1],,3,,
{16}7-4[8:1],,7,,7/2-5[8:1],,2,,2b/7b,,,,,,,,
{16}1-3[8:1],,,7,1-5[8:1],,8,,1/8b-5[8:1]*<5[8:1],,,,,,,,
{8}1>4[8:1],7,1-5[8:1],8,1b,,,,
{16}8-6[8:1],,,1,8-4[8:1],,2,,8/2-5[8:1],,2,,7-3[8:1],,7,,
{8}1-5[8:1],1,1/7,8,{16}4,8,4,8,3,7,3,7,
{16}2b>5[8:1],,,8,2,,7,,1-5[8:1],,8-4[8:1],,1,,8,,
{8}3,2/6,3/7,2/6,3>8[8:1]/7<4[8:1],,3b/7b,,
{16}7<4[8:1],,,1,7,,2,,8-4[8:1],,1-5[8:1],,8,,1,,
{8}6,7/3,6/2,8/4,6<1[8:1]/2>5[8:1],,6b/2b,,
{16}3>8[8:1],,,5,3,,6,,2-6[8:1],,8-4[8:1],,2,,8,,
{8}3,2/5,1/6,5/2,3-7[8:1]/4-8[8:1],,3b/4b,,
{16}6<1[8:1],,,4,6,,3,,
{8}6/4,7/8,5/3,1/2,7/3,7,7/1,1,8z4[8:1]/1s5[8:1],,1b/8b,,
{8}6<1[8:1],6,4,4,4p8[8:1],4,5,5,5q1[8:1],5,3,3,3>8[8:1],3,7,7,
{8}7-4[8:1],7,1-5[8:1],1,6<8[8:1],6,2-6[8:1],2,1b-4[8:1],1,8b-5[8:1],8,7b-4[8:1],7,2,2,
{8}2/1-5[8:1],2,2/1,2,3/4-8[8:1],3,3/4,3,7/2-6[8:1],7,7/2,7,7/5-1[8:1],7,7/5,7,
{8}7/8b,6,7b/8,1,7/8b,5,7/8,2,4b/5,2,4/5b,7,1/2b,2/8b,1b/6,2/5b,3b/4b,5b/6b,7b/8b,1b/2b,
{16}2,1,4,7,2,4,1-5[2.42##0.15],6,
{4}1h[4:5],,,,,,2b/8b,1b,
{16}6-1[16:3],,,1<4[16:5],,,4,,4,3,2,1,8,,,,
{16}2-5[16:3],,,5>8[16:5],,,8,,8,7,6,5,4,,,,
{8}7/2>5[8:1],,2/8,8>3[8:1],,8/5-1[8:1],,5/8,,7,6,5-1[8:1],,5/4,3,2,
{8}1h[8:7]/8,,7,7,,6,5,4h[4:2],,1-5[8:1],8,1,,,7,8,
{8}1h[8:1]/5h[8:1],,3/7,1h[8:1]/5h[8:1],,6,1-4[8:1]*>4[8:1],7,
{8}1b-6[8:1]*<6[8:1],,1bw5[8:1],,1b,,3/7,,
{16}3-8[16:3],,,8>5[16:5],,,5,,5,6,7,8,1,,,,
{16}7-4[16:3],,,4<1[16:5],,,1,,1,2,3,4,5,,,,
{8}2/7<4[8:1],,7/1,1<6[8:1],,1/4-8[8:1],,4/1,,2,3,4-8[8:1],,4/5,6,7,
{8}8h[8:7]/1,,2,3,,3,4,5h[4:2],,8-3[8:1],1,8,,2,1,8,
{8}7h[8:1]/3h[8:1],,1/5,3h[8:1]/7h[8:1],,8,2,8,
{16}1,2,3,4,5,6,7,8,{32}1,2,3,4,5,6,7,8,1,2,3,4,5,6,7,8,
{8}1b/6b,,,3/8,1/6,,,3/8,1/6,3,2/7,5,1-5[8:1]/6-4[8:1],,1/6,,
{8}8/3,,,6/1,8/3,,,6/1,8/3,6,7/2,4,8/3,7b,7b,,
{8}1/6,,,3/8,1/6,,,3/8,1/6,3/8,2/5,4/7,1-5[8:1]/6-4[8:1],,1/6,,
{8}8/3,,,6/1,8/3,,,6b/1b,8b/3b,6b/1b,7b/4b,5b/2b,8b/3b,,4/5,,
{16}2-5[8:1]/7,,1-6[8:1],8,2-7[8:1],,1,,2-4[8:1],,8,,2,,8,,
{16}2-5[8:1],1,2,1,2,,7,,7-4[8:1],8,7,8,7,,2,,
{16}7-3[8:1]/2,,8-4[8:1],1,7-2[8:1],,8,,7-4[8:1],,3,,7,,1,,
{16}7<4[8:1],8,6,8,7,,2,,2>5[8:1],1,3,1,2,,7,,
{16}2-5[8:1]/7,,1-6[8:1],8,2-4[8:1],,1-5[8:1],,2-7[8:1],,1,,2,,8,,
{16}8<5[8:1],4,1-5[8:1],3,8,,1,,7-4[8:1],3,8,2,7,,1,,
{16}5/8,1,6/2,3,7/4,,8/4,,8/3,7,6/2,5,4/1,,4/8,,
{16}4/8,1/5,2/6,3/7,4/8,,4/8,,3/7,2/6,1/5,4/8,
{16}3-6[8:1]/7-2[8:1],,1s5[2.42##0.15]/5,,3b/7b,,
{8},,,,,,,,,,,2b/8b,,1b,,
{4}1q7[4:1],7q4[4:1],4q2[4:1],2q7[4:1],7q5[4:1],5w1[4:1],,,
{16}5v8[16:3],,,8<3[16:5],,,3,,3,2,1,8,7,6,5,4,
{16}3v6[16:3],,,6>1[16:5],,,1,,1,8,7,6,5,4,3,2,
{8}1/5-2[8:1],,1/5,7-5[8:1]*-3[8:1],,7,,2>5[4:1],,7,8,1-5[8:1],,1/8,7,6,
{8}5h[8:7]/4,,6,6,,7-4[8:1],8,7,,2-5[8:1]/6-1[8:1],3/7,2/6,,,
{8}7h[4:1]/3,,1h[8:3],,7,7,,1/8,1-5[8:1]/8-4[8:1],2/7,1b>3[8:1]/8b<6[8:1],,
{8}1bs5[8:1]/8bz4[8:1],,1b/8b,,,,
{16}1v4[16:3],,,4>7[16:5],,,7,,7,6,5,4,3,2,1,8,
{16}7v2[16:3],,,2<5[16:5],,,5,,5,4,3,2,1,8,7,6,
{8}5/1-6[8:1],,5/1,3-1[8:1]*-5[8:1],,3,,6<1[4:1],,3,4,5-1[8:1],,5/4,3,2,
{8}1h[8:7]/8,,7,7,,6,5,4,,1-4[8:1]/5-8[8:1],2/6,1/5,,,2/6,,2h[4:1]/4h[4:1],,,7h[4:1]/5h[4:1],,,1h[8:1]/8h[8:1],,
{16}1/8,2,3,4,1,8,7,6,{32}5/2,3,4,5,6,7,8,1,2/7,6,5,4,3,2,1,8,
{8}7b/4b,,,2/5,7/4,,,8-4[8:1]/3,6/4-7[8:1],8/2-5[8:1],1-6[8:1],2,1>4[8:1],,1,,
{8}8/5,,,6/3,8/5,,,7/1-3[8:1],5-7[8:1]/4,1/8v3[8:1],5-1[8:1],8,5,4b,4b,,
{8}3/8,,,1/6,3/8,,,1-5[8:1]/7,5-1[8:1]/3,1/7-4[8:1],8-3[8:1],7,8<5[8:1],,8,,
{8}1/4,,,2/7,5/8,,,4/6-8[8:1],1-3[8:1]/8,4-8[8:1]/6,1-5[8:1],4,1b,
