&title=花の願い
&artist=Hebi.
&first=0.19
&des=fuwan
&lv_5=13+
&inote_5=(168){4},6h[16:23],3,4,
{16},,,,,,,,,,,4h[32:15],{32},,,,,,,,,,,,,5h[32:15],
,,,,,,,,,,,,,,{8}2pp5qq1[0.3571##3.0357],{16},,,,,,,,,,,B8,
B7,B6,,,,,,,,,,E7,
B7,B8,,,,,,,,,,,(175){4}8<5[8:3],
4,{2}3p7[8:3],
{4}6,5,5/4p8[8:3],6,
{8}7<4[8:3],,,4,3,2,,1-5[4:1],
,6,,7h[1:1],,,,,,,,4,
4-8[4:1],,,5,
6,,,7,7-3[4:1],,,1,
{2}1h[4:1],{8}1qq4[16:11],4,,5,
,6,,7xh[8:9],,,,,,,,,6b,
5,4,3,
{2}2xqq5[4:3],5,
{4}7h[4:1],5,{8}7/5,,,4/6h[4:1],
,5h[4:1],,4hx[1:1],,E6/B6,,E8/B8,
,E2/B2,,3,3>8[4:1],,,4
,
4-7[4:1],,,8,8pp3[4:3],,,5,
5h[4:1],,,6,6h[4:1],,,6/4v2>3v1[8:5],
,,,,7,8,,8hx[8:3],
,,{4}2h[4:1],{8}6,5,,4/3>8[8:3],
6,,,7,{4}7-5[4:1],5-3[4:1],
3-7[4:1],2,2-4[4:1],4-6[4:1],
6-2[4:1],{8}7,8p4[4:1]*q4[4:1],,,,,5,
6,{4}7,8x<5[4:1],5,
4,3,2x>5[4:1],5,
6,8>3[8:3]/7<4[8:3],{2}8/7,
{8},5h[4:1],,4p8[4:1],{4}6,{8}6,7,
,7,{4}8-2-6[8:5]*-3-5[8:5],{2}8b,
{8},,,7<4[4:1],{4}3,{8}3,2,
,4,{4}3p8[400:249],{2}7hbx[8:7],
{8},,,8,7-4[8:1],4,7,3,
2-5[8:1],4,{4}2bx/5bx,{8}8-5[8:1],3,2/8,1-4[8:1],
6,1/7,8,{16}3,3,{8}5,4,{16}5,5,{8}3,
6,{16}2,3,4/5,6,7,8,{4}1b-5[8:1],{8}3/1,2,
,2-8[8:1]/7x-4x[8:1],6x/3x,2b/7b,,6,5,3/5,
{4}6h[8:1]/4h[8:1],7qq4[2:1]/3-8b[8:1],{2}7bx/3bx,
{4}8-3[8:1],8x/7x,1-6[8:1],1-4[8:1]*-5[8:1],
{8}1,,,6,7,8-6[8:1],,8/4-2[8:1],
,5/4pp8[2:1]*qq8[2:1],,4b,{16},,,,,,,,,,1,
7,{8}1,1/6,6/1xV35[4:1],,,6,
7x<4[8:1],,,1,8xV24[4:1],,,4,
{4}5x-7-1[4:1],5/2,{8}3,4,{16}7,6,5,4,
1,2,3,4,{8}5/7,6/4-7[8:1]*-1[8:1],,4,,2/6,
{4}5/3,5/4qq1[400:199],4b/8b-5b[8:1],8,
7-4[8:1],1>4[8:1]*<6[8:1],1-5[8:1],1,
{8}7pp5[8:3],,,4,3,2,1h[2:1],5x,
{24}E5,E4,E3,E2,E1,E8,E7,E6,{6}E5,{48}2,,,5,,,{16}3,5,{8}4,5h[4:1],
,4h[4:1],,,,,4,3,
2/5,{16}7,8,{8}7,1,3/4,5,6,7,
2/8,3,4,5,4>6[8:3],5,,5,
,5,,5/4,6/3,7/2,,7/1,
,2h[4:1]/6h[4:1],{16},,,,6bx/2bx,7/3,8/4,1/5,6,7,8,1,
{2}2bx/6pp5[4:1],{16}1,2,3,4,7,6,5,4,
{4}1,3/4,{16}6,5,6,5,7,4,7,4,
8,3,8,3,1,2,1,2,{2}1pp5[16:7]*qq6[16:7],
{8},,,,4/3,7/1,5/4,3/6,
2-6[8:1],8,{4}2b/1b,{8}5/7,2/8,4/5,6/3,
7-3[8:1],1,{4}7b/8b,{16}6,5,6,4,5,4,5,3,
4,2,3,2,8,7,6,5,4/8,3,2,1,{8}8x/4x,4,
{4}5q1[8:1],5/2q6[8:1],2b,{8}7,8,
1/3,4,6/5,4/3,{4}8-6[8:1]/1-5[8:1],8b-4b[8:1]/1b-3b[8:1],
8/1,{16}7x,6,5,4,7x,6,5,4,{8}3bx/6bx,7<4[8:1]*>2[8:1],
,7-3[8:1],,7b,,2,{16}4,4,{8}3,
7,{16}5,5,{8}6,3,3/1-5[8:1],6,{4}7-4[8:1],
7/8,{8}1-5[8:1],7,1/8V64[4:1],,,3,
{4}2h[4:1],{16}5,6,7,8,5,4,3,2,7,1,7,1,
6,2,6,2,5,3,5,3,{2}4bxw8[8:1],
{4}6<1[8:1],6/2>5[8:1],7p3[8:1]*v4[8:1],7b,
2<7[8:1],2/6>3[8:1],6/8,{16}1,4,1,4,
2,5,2,5,3,6,3,6,{8}5/4,2-6[8:1],,2b/8-4[8:1],
,8b/1-5b[8:1],,6b-8[8:1],,6/4b-8[8:1]*-7[8:1],,4b-1[8:1],
,4,{24},,,E8,E7,E6,E5,E4,E3,E2,E1,E8,{8}E7,3,
{4}4,{16}7,5,7,5,6,4,6,4,5,3,5,3,
6,2,7,1,8,2,7,3,6,4,5,3,{8}4,2/5,
{16}3,4,{8}3,4/7,{16}6,5,{8}6,{16}3,4,3,4,3,4,
{4}3>8[8:1],Ch[4:7],
E
