&title=刀ピークリスマス2023
&artist=ピーナッツくん
&first=0.01
&des=moying
&lv_5=13+
&inote_5=(160){1},
{4}4h[4:1],,{8}5,5,,
{4}4h[4:1]/6h[4:1],,{8}4/6^8[8:1],,5,5,,
{4}5h[4:1],,{8}5,5,,
{4}3h[4:1]/4h[4:1],,{8}4h[4:1]/3h[8:3],,,,,
{4}3h[4:1]/5h[4:1],,{8}35,35,,
{4}4h[4:1]/6h[4:1],,{8}4/6-8[8:1],,5,5,,
{4}4h[4:1]/5h[4:1],,{8}35,35,,
{4}2h[4:1]/6h[4:1],,{8}1h[4:1]/7,,8,18,,
{4}2b-6[8:1]/8b-4[8:1],28,{8}5x-8[8:1],,3x,,
{8}2-6[8:1],2,1,,7-2[8:1],,1h[4:1],,
{8}3^8[8:1],4,5,,{4}5-1b[8:1],1-5b[8:1],
{8}3,,2-7[8:1]/6-3[8:1],,26,,1,2,
{4}3v8[8:1]/7v4[8:1],37`C,1^4[16:3],4^1[16:3],
{8}6,6,7-3[8:1],,1-5[8:1],,,,
{4}6^1[8:1],5h[4:1],{8}2-6[8:1],2,1h[4:1],,
{4}7-5[8:1],4-8[8:1],5-1[8:1],,
{4}3xqq4pp4[4:5],7,,7,,{8}8,,,,7,5,
{4}6-1b[8:1]`5-2-5[4:5],6x/5x,{8},8x,7,7x,,,{8}7x,,,6,5x/6x,,
{4}7v6-4z8[4:5],3,{8},3x,{4}3,,3,,3,
{4}6v1[8:1],2v5[8:1],{8}8,8,8,,
{4}3^6[4:1],6-3[4:1],7,8,
{8}25,3,47,6,{16}2h[8:1]/5,,4,3,,6,4,5,
{8}3,4,57,6,{16}2h[8:1]/4,,1,2,,6,4,5,
{8}2bxh[8:1],4bxh[8:1],3bxh[8:1],4bxh[8:1],{16}1v3[8:1],,5v7[8:1],5x,,,,,
{8}4z8[4:1],4,{4}8-5[8:1],7x-3[8:1],7bxv5[8:1]*v1[8:1],C,
A2/E2/B2/E3/A6/E6/E7/B6,
{8}1-3[8:1],8-4[8:1],1,8,
{16}1,,6,5,,5,7,,
{8}1-4[8:1]/8-5[8:1],27,18,,
{16}26,,3,4,,4,2,,{48}B8,B7,B6,,,,B2,B3,B4,,,,B1,Cf,,,,,{8},
{16}4x/6x,,6x,5x,,5x,,,{4}6x-8-5-1b[2:1],3-1b[4:1],
{1},,E8,B4,
{8}C,,B2,B3,,,E5,,
{8},,B2,B3,,,E5,,,,
{2}Ch[4:3],,,
{4}2^5[8:1]/7-3[8:1],
2b/7b`Cf,1x/4x,{8}35,6/2^5[8:1],,
7^2[8:1],6,4-8[8:1],3,8,7-3[8:1]*-4[8:1],,7,,
{4}2-5[8:1]/6-1[8:1],26,{8}4,4qq2b[8:1],,
4pp6b[8:1],,4,,5,5w1[8:1],,,,
37,,,6V85[4:1]/5-1[8:1],56,,,1x>5[8:1]*<5[8:1],1x,,,4xv2[8:1]/6x<2[8:1],4x/6x,,,,
{4}2-5[8:1]/4-7[8:1],24,
{8}7x^6-4[8:1],8,1,2-4^5[8:1],1,8,
7v4[8:1],8,1,2-6[8:1],1,8,
{4}1bx-5[8:1],1/2bx,{8}37,3/7h[4:1],,
{8}2bx,2^5[4:1],,5bxs1^8z4b[2:1],,6,6,6,,
{4}8xw4[8:1],8,{8}26,1/7-3[8:1],,5,5,,E2/B1/B8/E8/E1/C/E5/D5,,
26,3,47,6,45,,
{8},3v1[8:1]/4-8[8:1],34,,,4v1[8:1]/5-8[8:1],45,,,5q2[8:1]/6-1[8:1],56,,,,
{4}7-4[8:1]/5-2[8:1],75,
{8}2x^3-5[8:1],1,8,7-5^4[8:1],8,1,
2v5[8:1],1,8,7-3[8:1],8,1,
{4}8b^3[8:1]*^5[8:1],8,{8}4-8[8:1],5,6,,
7,7^4[8:1],,1-5[8:1],1,,6-8-5-1[8:3],,
{4}5,3-7[8:1],8-4[8:1],{8}2,,
7,6,5/2^1-4[4:1],,4pp4[4:1],,7,,
{8}8,,26,3,45,5,6,7,
{4}7q3[4:1]/1,3-6[4:1],1h[4:1],,
{4}2/8-2-6-4^5-3-7[2:1],D5/A5/D6/E5/E6/B5,{8}2,2,2-5b[4:1],,
{4}5V72b[8:3],7,8,{8}1,8,
{8}7-3-5[4:1],7,3,,2-7[8:1],2,4h[4:1],,
{4}6-1[8:1],4-8[8:1],5-1[8:1],6x^3-6b[8:3],
{4}2,1>7[8:3],5x<1[4:1],1>5[4:1],
{8}6,7,8^1-3[8:1],,5h[4:1],,4x-7[8:1],,
34,,1/7x,6/2-5-3[4:1],,5,,1x-3[8:1],
8x-4[8:1],1-5[8:1],8-6[8:1],1,8,,
{8}1,2,3^6[4:1],,6-2[4:1],,2^7[4:1],,6,5,
4-8[8:1],,2,,1-5b[8:1]*v3[4:7],,1b,,
{1},,4xV26[1:1]/5xv6[1:1],,3x^2-7[1:1]/8x-6^4^5-1[1:1],,{4},,,
{4}2b/7bh[4:1],
{24}1bx,8bx,1bx,8bx,1bx,8bx,1bx,8bx,1bx,8bx,1bx,8bx,
{48}1bx,2bx,3bx,4bx,5bx,6bx,7bx,8bx,1bx,2bx,3bx,4bx,5bx,6bx,7bx,8bx,1bx,2bx,3bx,4bx,5bx,6bx,7bx,8bx,
{4}E5f/B4/B3/E3/B2/C/B5/B6/E7/B7,2x/6x,
{8}45,4qq4[4:1]/5,,4pp4[4:1]/7,,7,8,1x,1x-4[8:1]*-6[8:1],,1,,
{4}3-7[8:1]/7-3[8:1],3/7`Cf,{8}46,4-2[8:1]/6,,
{8}7,7-4[8:1],6,1^4[8:1]*^6[8:1],2,1,,5-1[8:1],4,35,,
{8},2-6[8:1]/8-4[8:1],28,,,2<6[8:1]*v4[8:1],2,,,3v1[8:1]/5v7[8:1],35,,,,
{4}3-8[8:1]/7-4[8:1],37,
{8}6x^7-1[8:1],5,4,3-1^8[8:1],4,5,
6v1[8:1],5,4,3-7[8:1],4,5,
{4}6b-2[8:1]*-1[8:1],6,{8}37,3-8[8:1]/7-4[8:1],,3/7pp5[4:1],,2,3,3,
{4}2-7[8:1]/4-6-8[8:1],24,
{4}1bs5[4:1],5s1[4:1],{8}7,7^4[8:1],,
2,2-8[8:1],3,5^2[8:1]*^8[8:1],4,5,,1-5[8:1],8,17,,,
{8}3v1[8:1]/8-4[8:1],38,,,1v4[8:1]/5-8[8:1],15,,,1-6[8:1]/5q2[8:1],15,,,,
{4}6-1[8:1]/2-5[8:1],62,
{8}3^2-8[8:1],4,5,7-1^2[8:1],6,5,
3v6[8:1],5,7,8-4[8:1],5,4,
