&title=限りなく灰色へ
&artist=25時、ナイトコードで。
&wholebpm=
&first=0.00
&lv_1=
&lv_2=
&lv_3=
&lv_4=10
&lv_5=12+
&des_1=Tane
&des_2=Tane
&des_3=Tane
&des_4=Tane
&des_5=Tane
&des=Tane
&inote_4=
(107.89){1},,
{24}4-2[4:1],,,,,,
5,,,,,,
6,,,6,,,
,,,,,,
{24}2-4[4:1],,,,,,
5,,,,,,
6,,,6,,,
,,,,,,
{24}5-7[4:1],,,,,,
4,,,,,,
3,,,3,,,
,,,,,,
{24}7-5[4:1],,,,,,
4,,,,,,
3,,,3,,,
,,,,,,
{24}1-3[4:1],,,,,,
8,,,,,,
7,,,7,,,
,,,,,,
{24}3-1[4:1],,,,,,
8,,,,,,
7,,,7,,,
,,,,,,
{24}8-6[4:1],,,,,,
1,,,,,,
2,,,2,,,
,,,,,,
{24}6-8[4:1],,,,,,
1,,,,,,
2,,,2,,,
,,,,,,
,,,,,,
{24}1<4[8:3],,,,,,
,,,4,,,
,,,{16},,
,,,,
{24}8>5[8:3],,,,,,
,,,4,,,
,,,,,,
,,,,,,
{24}4<1[8:3],,,,,,
,,,1,,,
,,,{16},,
,,,,
{24}5>8[8:3],,,,,,
,,,1,,,
,,,,,,
,,,,,,
{24}8>5[8:3],,,,,,
,,,5,,,
,,,{16},,
,,,,
{24}1<4[8:3],,,,,,
,,,5,,,
,,,,,,
,,,,,,
{24}5>8[8:3],,,,,,
,,,8,,,
,,,{16},,
,,,,
{24}4<1[8:3],,,,,,
,,,8,,,
,,,,,,
,,,,,,
{24}3-8[8:1]/4,,,,,,
,,,4,,,
3-8[8:1],,,,,,
4,,,,,,
{24}4,,3,4,,3,
4,,3,4-7[8:1],,,
,,,,,,
8,,,,,,
{24}2-5[8:1]/1,,,,,,
,,,1,,,
2-5[8:1],,,,,,
1,,,,,,
{24}1,,2,1,,2,
1,,2,1-6[8:1],,,
,,,,,,
5,,,,,,
{24}6-1[8:1]/5,,,,,,
,,,5,,,
6-1[8:1],,,,,,
5,,,,,,
{24}5,,6,5,,6,
5,,6,5-2[8:1],,,
,,,,,,
1,,,,,,
{24}7-4[8:1]/8,,,,,,
,,,8,,,
7-4[8:1],,,,,,
8,,,,,,
{24}8,,7,8,,7,
8,,7,8-3[8:1],,,
,,,,,,
4,,,,,,
{8}4h[8:3],,,3>6[8:2],
,,,,
{8}5h[8:3],,,6<3[8:2],
,,,,
{8}4h[8:1],,5h[8:1],,
4h[8:1],,5h[8:1],,
{24}45,,,4,,,
45,,,5,,,
27,,,,,,
,,,,,,
{24}7h[8:3],,,,,,
,,,5h[8:3],,,
,,,,,,
{48}1,,,,,,
,,,,,,
{24}2h[8:3],,,,,,
,,,4h[8:3],,,
,,,,,,
{48}8,,,,,,
,,,,,,
{24}7h[8:3],,,,,,
,,,5h[8:3],,,
,,,,,,
{48}1,,,,,,
,,,,,,
{24}2h[8:3],,,,,,
,,,4h[8:3],,,
,,,,,,
{48}6b,,,,,,
,,,,,,
{24}7h[8:3],,,,,,
,,,6h[8:3],,,
,,,,,,
{48}1,,,,,,
,,,,,,
{24}2h[8:3],,,,,,
,,,3h[8:3],,,
,,,,,,
{48}8,,,,,,
,,,,,,
{24}7h[8:3],,,,,,
,,,6h[8:3],,,
,,,,,,
{48}1,,,,,,
,,,,,,
{24}2h[8:3],,,,,,
,,,3h[8:3],,,
,,,,,,
{48}6,,,,,,
,,,,,,
{24}6<3[12:2]/3,,,,,,
,,,,,,
6<3[12:2],,,,,,
,,,,,,
{24}24,,3,4,,3,
4,,3,4,,2,
4,,3,4,,2,
5,,,34,,,
{24}7<2[12:2]/2,,,,,,
,,,,,,
7<2[12:2],,,,,,
,,,,,,
{24}31,,2,1,,2,
1,,2,1,,3,
1,,2,1,,3,
8,,,21,,,
{24}3>6[12:2]/6,,,,,,
,,,,,,
3>6[12:2],,,,,,
,,,,,,
{24}75,,6,5,,6,
5,,6,5,,7,
5,,6,5,,7,
4,,,65,,,
{24}2>7[12:2]/7,,,,,,
,,,,,,
2>7[12:2],,,,,,
,,,,,,
{24}68,,7,8,,7,
8,,7,8,,6,
8,,7,8,,6,
1,,,78,,,
{24}4V28[4:1],,,,,,
7,,,,,,
6,,,6,,,
6,,,7,,,
{24}8V24[4:1],,,,,,
7,,,,,,
6,,,6,,,
6,,,7,,,
{24}5V71[4:1],,,,,,
2,,,,,,
3,,,3,,,
3,,,2,,,
{24}1V75[4:1],,,,,,
2,,,,,,
3,,,3,,,
3,,,2,,,
{24}1V35[4:1],,,,,,
6,,,,,,
7,,,7,,,
8,,,8,,,
{24}5V31[4:1],,,,,,
6,,,,,,
7,,,7,,,
8,,,8,,,
{24}8V64[4:1],,,,,,
3,,,,,,
2,,,2,,,
1,,,1,,,
{24}4V68[4:1],,,,,,
3,,,,,,
2,,,2,,,
1,,,1,,,
{24},,,,,,
,,,,,,
,,,,,,
,,,,,,
(1){1},E
&inote_5=
(107.89){1},,
{24}4-6[8:1],,5,5,,,
4qq3[8:2],,,,,,
5,,,5,,,
,,,,,,
{24}6,,7,5,,5,
7-5[8:2],,,,,,
4,,,4,,,
,,,,,,
{24}5-3[8:1],,4,4,,,
5pp6[8:2],,,,,,
4,,,4,,,
,,,,,,
{24}3,,2,4,,4,
2-4[8:2],,,,,,
5,,,5,,,
,,,,,,
{24}4-6[8:1],,4,5,,,
4qq3[8:2],,,,,,
4,,,5,,,
,,,,,,
{24}6,,7,7,,5,
5-7[8:2],,,,,,
4,,,4,,,
,,,,,,
{24}5-3[8:1],,5,4,,,
5pp6[8:2],,,,,,
5,,,4,,,
,,,,,,
{24}3,,2,2,,4,
4-2[8:2],,,,,,
5,,,5,,,
,,,,,,
,,,,,,
{24}1<4[8:3],,,,,,
,,,4,,,
3,,,{16}2,2,
,,8,,
{24}7>4[8:3],,,,,,
,,,4,,,
5,,,6,,,
7,,,8,,,
{24}1>6[8:3],,,,,,
,,,6,,,
7,,,{16}8,8,
,,2
,,
{24}3>7[8:3],,,,,,
,,,7,,,
6,,,5,,,
4,,,3,,,
{16}2-5[8:1],,8,8,
{24}2,,,8pp2[4:1],,,
17,,,,,,
,,,,,,
{16}1-5[8:1],,8,8,
{24}1,,,8,,,
5/6-1[8:1],,,78,,,
5,,,,,,
{16}7-4[8:1],,1,1,
{24}7,,,1qq7[4:1],,,
82,,,,,,
,,,,,,
{16}8-4[8:1],,1,1,
{24}8,,,1,,,
4/3-8[8:1],,,21,,,
4,,,,,,
{24}3-8[8:1]/4,,,17,,,
5v2[8:1],,,5-7[8:1],,,
,,,,,,
1,,2,4,,,
{24}4,,5,4,,3,
4,,5,4,,,
2-5[8:1],,2,8,,,
8,,,7,,,
{24}7-4[8:1]/8,,,28,,,
2-8[8:1],,,2p5[8:1],,,
,,,,,,
1,,7,8,,,
{24}8,,2,1w5[8:1],,7,
8>7[8:3],,,1,,,
,,,1,,,
2,,,3,,,
{24}6-1[8:1]/5,,,82,,,
4v7[8:1],,,2-5[8:1],,,
,,,,,,
8,,7,5,,,
{24}5,,4,5,,6,
5,,4,5,,,
7-4[8:1],,7,1,,,
1,,,2,,,
{24}2-4[12:1]/1,,,86,,,
8-3[8:1],,,5-1[8:1],,,
,,,,,,
8,,2,1,,,
{24}1,,7,8z4[4:1],,2,
1,,,8,,,
,,,1,,,
2,,,3,,,
{8}4h[8:3]/8,1,2,3>6[8:2],
,4,3,,
{8}5h[8:3]/1,8,7,6<3[8:2],
,5,6,,
{8}4h[8:1]/8,7,7/4h[8:1],6,
4h[8:1]/6,5,5/4h[8:1],,
{24}45,,3,4,,2,
5,,1>6[4:1],6,,,
,,,,,,
,,,,,,
{24}2/7h[8:3],,,,,,
,,,5h[8:4],,,
,,,,,,
{48}2,1,,,,,
,,,,,,
{24}7/2h[8:3],,,,,,
,,,4h[8:4],,,
,,,,,,
{48}7,8,,,,,
,,,,,,
{24}1/7h[8:3],,,,,,
,,,5h[8:4],,,
,,,,,,
{48}2,1,,,,,
,,,,,,
{24}8/2h[8:3],,,,,,
,,,4h[8:4],,,
,,,,,,
{48}6b,,,,,,
,,,,,,
{24}2/7h[8:3],,,,,,
,,,6h[8:4],,,
,,,,,,
{48}2,1,,,,,
,,,,,,
{24}7/2h[8:3],,,,,,
,,,3h[8:4],,,
,,,,,,
{48}7,8,,,,,
,,,,,,
{24}1/7h[8:3],,,,,,
,,,6h[8:4],,,
,,,,,,
{48}2,1,,,,,
,,,,,,
{24}8/2h[8:3],,,,,,
,,,3h[8:4],,,
,,,,,,
{48}6h[8:1],,,,,,
,,,,,,
{24}6<3[12:2]/3,,,4,,,
5,,,6,,,
6<3[12:2],,,3,,,
4,,,5,,,
{24}45,,2,4,,6,
5,,3,4,,7,
5qq5[12:2]*pp5[12:2],,,1,,,
,,,,,,
{24}2<5[12:2]/4,,,4h[4:1]/6,,,
,,,,,,
4/6<3[12:2],,,2/4h[4:1],,,
,,,,,,
{24}34,,7,8,,6,
5,,3,4,,2,
1h[8:1],,,6h[4:1],,,
3h[8:1],,,,,,
{24}3>6[12:2]/6,,,5,,,
4,,,3,,,
3>6[12:2],,,6,,,
5,,,4,,,
{24}54,,7,5,,3,
4,,6,5,,2,
4-8[8:1],,,35,,,
4,,,,,,
{24}7>4[12:2]/5,,,53,,,
5,,,6,,,
5/3>6[12:2],,,7/5,,,
5,,,4,,,
{24}65,,2,1,,3,
4,,6,5,,7,
8z4[12:2]/1s5[12:2],,,,,,
,,,,,,
{24}1-5[8:1],,1,8,,8,
1,,,8-6[8:1],,8,
1-3[8:1],,1,8-4[8:1],,,
1,,,8,,,
{24}1-3[8:1],,1,8,,8,
1,,,8-4[8:1],,8,
1-5[8:1],,1,8-6[8:1],,,
1,,,8,,,
{24}1-5[8:1],,1,8,,8,
1,,,8-6[8:1],,8,
5-1[8:1],,5,8-4[8:1],,,
5,,,8,,,
{24}1-3[8:1],,1,8,,8,
1,,,8-4[8:1],,8,
3-1[8:1],,3,8-6[8:1],,,
3,,,8,,,
{24}1-5[8:1],,1,8,,8,
1,,,8-6[8:1],,8,
5-3[8:1],,5,8-4[8:1],,,
5,,,8,,,
{24}3-1[8:1],,3,8,,8,
3,,,8-4[8:1],,8,
1-5[8:1],,1,8-6[8:1],,,
1,,,8,,,
{24}1-3[8:1],,1,8,,8,
1,,,8-6[8:1],,8,
3-5[8:1],,3,8-4[8:1],,,
3,,,8,,,
{24}5-1[8:1],,5,8,,8,
5,,,8,,8,
1,,1,7,,7,
3,,3,5,,54,
{24},,,,,,
,,,,,,
,,,,,,
,,,,,,
(1){1},E
