&title=四月の雨
&artist=cubesato
&first=3.04
&des=Hanario
&lv_3=0
&lv_4=0
&lv_5=0
&lv_6=13+
&inote_1=
&inote_6=(79)
{16}1-4[16:1],,,,,,,6-4[16:1]/4,6h[4:1]/4-2[16:1],,,,,,,2-4[16:1]/4,
{16}2h[4:1]/4-6[16:1],,,,,,,7-3[16:1]/1,7h[8:1]/1,,,,8h[16:1],2h[16:1],4h[16:1],8h[16:1],
{8}6V82[8:2],8-2[8:1],2-6[8:1],6V84[4:1],8,,3h[8:3],,
{32}1pp1[16:3],,,,6h[2:1],,,,,,,,,,,,8qq8[16:3],,,,3h[8:1],,,,,,,,,,,,
{16}2h[16:6],8,8,8,8,8,8,2-8[16:1]/8,2h[8:1]/8-6[16:1],,,,3,3,,6-8[16:1]/8,
{16}6h[8:1]/8-2[16:1],,,,5,5,,3^1[16:1]/1,3h[8:1]/1-5[32:3],,,,4,4,,,
{8}3^1[8:1],1^7[8:1],7-3[8:1],3V15[4:1],1,,6h[8:3],,
{32}8qq8[16:3],,,,3h[2:1],,,,,,,,,,,,1pp1[16:3],,,,6h[8:1],,,,,,,,,,,,
{16}3h[16:1],4h[16:1],5h[16:1],6h[16:1],3h[16:1],4h[16:1],5h[16:1],6h[16:1],3h[16:1],4h[16:1],5h[16:1],6h[16:1],3h[16:1],4h[16:1],5h[16:1],6h[16:1],
{16}3h[16:1],4h[16:1],6h[16:1],7h[16:1],3h[16:1],4h[16:1],6h[16:1],7h[16:1],3h[16:1],4h[16:1],6h[16:1],7h[16:1],3b,,,,
{16}3h[16:1],4h[16:1],5h[8:1],,4h[16:1],5h[16:1],6h[8:1],,5h[16:1],6h[16:1],7h[8:1],,6h[16:1],7h[16:1],8h[8:1],,
{16}1h[16:1],8h[16:1],7h[8:1],,8h[16:1],7h[16:1],6,,{32}4h[32:1],6h[32:1],3h[32:1],5h[32:1],2-6[16:1],8h[32:1],3h[32:1],7h[32:1],4h[32:1],6h[32:1],3h[32:1],7h[32:1],2,,,,
{16}2h[16:1],4h[16:1],6h[8:1],,4h[16:1],6h[16:1],8h[8:1],,6h[16:1],8h[16:1],2h[8:1],,8h[16:1],2h[16:1],4h[8:1],,
{16}6h[16:1],4h[16:1],2h[8:1],,4h[16:1],2h[16:1],8h[8:1],,2h[16:1],8h[16:1],{32}2-6[16:1],8h[32:1],3h[32:1],7h[32:1],4h[32:1],6h[32:1],3h[32:1],7h[32:1],2,,,,
{16}2h[16:1],4h[16:1],5^2[16:1],,6h[16:1],5h[16:1],8^5[16:1],,1h[16:1],8h[16:1],3^8[16:1],,4h[16:1],3h[16:1],6^3[16:1],,
2h[16:1],6h[16:1],1^6[16:1],,3h[16:1],1h[16:1],4^1[16:1],,5h[16:1],4h[16:1],7^4[16:1],,1h[16:1],7h[16:1],2,,
1h[16:1],6h[16:1],8^3[16:1],,1h[16:1],8h[16:1],2^7[16:1],,6h[16:1],2h[16:1],8^3[16:1],,4h[16:1],8h[16:1],4V68[16:1],,
{16}7h[16:1],4h[16:1],6V42[16:1],,1h[16:1],6h[16:1],4V61[16:1],,1h[16:1],4h[16:1],6V41[16:1],,1h[16:1],6h[16:1],4,,
{16}2-5[16:1],,2h[8:3],,,,6q2[8:1],,6h[8:4],,,,,,3-6[16:2],,
{16}3h[8:4],,,,,,8^3[8:1],,8h[4:2],,,,,,5p8[8:1],,
{8}5h[8:4],,,8v5[8:1],1h[2:1],,,3-1[16:2],
{8}4h[2:1],,,8-4[8:1],7h[8:3],,,2^7[8:1],
{16}2h[8:3]/7,,,,,,5v2[8:1],,5h[8:3]/2,,,,,,3-5[8:1],,
{16}3h[8:3]/5,,,,,,7-3[8:1],,7h[8:3]/3,,,,,,2v7[8:1],,
{16}3h[8:2]/8,,2^5[8:1],,,,5^2[8:1],,6h[8:2],,5v8[8:1],,,,1v4[8:1],,
{16}2h[8:2],,1^6[8:1],,,,1^4[8:1],,2h[8:2],,1,,,,4,,
{4}4b>4[6:8],,1<1[6:8]*<1[6:8],,
{4}6>6[6:8],,3>3[6:8]*>3[6:8],,
{4}8<8[6:8],,5>8[6:5]*>8[6:5],,
{4}2^8[6:2],,7w3[16:2],,
{16}6h[16:1],4h[16:1],8v2[16:1],3h[16:1],7h[16:1],5h[16:1],8v6[16:1],3h[16:1],5h[16:1],1h[16:1],8V24[16:1],3h[16:1],7h[16:1],5h[16:1],8,,
{16}3h[16:1],5h[16:1],1v7[16:1],6h[16:1],2h[16:1],4h[16:1],1v3[16:1],6h[16:1],4h[16:1],8h[16:1],1V75[16:1],6h[16:1],2h[16:1],4h[16:1],1,,
{8}1-4[8:1],4-2[8:1],1-6[8:1],6-8[8:1],1-4[8:1],4^2[8:1],1-6[8:1],6^8[8:1],
{8}1-4[8:1],4-8[8:1],1-6[8:1],6-2[8:1],1-5[8:1],4,1,,
{16}2h[16:1],8h[16:1],4^6[16:1],6h[16:1],8h[16:1],2h[16:1],4^2[16:1],7h[16:1],1h[16:1],3h[16:1],4<8[16:1],5h[16:1],1h[16:1],3h[16:1],4,,
{16}7h[16:1],1h[16:1],5^3[16:1],3h[16:1],1h[16:1],7h[16:1],5^7[16:1],2h[16:1],8h[16:1],6h[16:1],5>1[16:1],4h[16:1],8h[16:1],6h[16:1],5,,
{8}5^8[8:1],8-4[8:1],5^2[8:1],2-6[8:1],5-8[8:1],8^3[8:1],5-2[8:1],2^7[8:1],
{8}5-8[8:1],8-4[8:1],5-2[8:1],2-6[8:1],5-1[8:1],8,5,,
{16}8-2[16:1],2-6[16:1],6-8[16:1],8-4[16:1],,,,,{16}1-7[16:1],7-3[16:1],3-1[16:1],1-5[16:1],,,,,
{16}7-3[16:1],3^5[16:1],5^7[16:1],7v1[16:1],,,,,{16}2-6[16:1],6^4[16:1],4^2[16:1],2v8[16:1],,,,,
