&title=BUZZ CUTZ
&artist=TWC Sound Team "Strike Back Squad"
&first=0.064
&des=flawi
&lv_5=14+
&des_5=flawi
&inote_5=
(193){4},{1},,,,,,,{4},,,{1}1>2-4<5-7>8-2>3-5<6-8>1-3<4-6<7-1[2:15]*>1>1>1[2:15],
,,,,,,,{8}3,
5,4,6,3,4,5,6,
3,4,5,5,3,6,4,5,
6,3,5,4,6,5,4,3,
6,5,4,4,6,4,5,3,
6,3,5,4,3,4,5,6,
3,4,5,5,4,6,3,5,
4,6,3,3,5,3,6,6,
5,4,3,2,{4}1h[2:1],{8}8-4[8:1],8,
{16}8<8<8V64>8[4:13]*V64V28b[8:9]*<8V64-2<8b[32:71]*<8<8<8[4:13],Cf,{1},,,{4},{8},{4}C,
7<4[4:1],
{8}2h[4:1],,,2,,,{4}1q5[4:1],
{8}7h[4:1],,,7,,,{4}7,
6pp4[4:5],{8}4,4,,3,,2,
,1,{4}1,,2,
5/3-8[4:5],,,Ch[4:3],
,,,7,
4/6-1[4:5]*-1[4:5],,,Ch[4:3],
,,,2,
5/4-8b[4:5],,,Ch[4:3],
{8},,,,,,7h[2:3],1,
{4}2,{8}4,4,,5,,6,
,8,{4}8,{16}E2,E3,E4,E5,E6,E7,E8,E1,
{1}Cf/1bxw5b[2:7],
,,,{8}7<4q1[4:11],
,,4,,,{4}3,
{1}2h[1:2],
{4},,,,,1h[4:1],
{16}E8,B7,B6,E6,E2,B2,B3,E4,
{4}6x/4xh[4:7],6,6,6,
5,6,7,8,
5/7h[4:7],5,5,5,
6,5,4,3,
{16}B6/B5,,,3,{8}4h[8:1],2,{16}B2/E2,,,7,{8}8h[8:1],5,
{16}E6/B5,,,2,{8}4h[8:1],1,{16}2/4,,,3/5,,,{8}4/6,
4,4,6,6,{16}4,6,3,7,2,8,2,8,
{2}Ch[4:3],8-4b[8:1],
{4}3x-5[8:1],{8}3,6,{4}7<4[8:1],4-8[8:1],
{8}3,2,{4}1-5V38[8:3],{8}1,8,7,6,
{4}5-7[8:1],{8}5,3,{4}2v5[8:1],5p1[8:1],
{8}8,7,{4}6V84-7[8:3],{8}6/1,2,{4}3x,
2-5[8:1],{8}2,1,{4}8<5[8:1],5v7[8:1],
{8}4,3,{4}2-5-3-8[8:3],{8}8,7,{4}6,
5<8[8:1],{8}3h[16:1],3h[8:1],1s5[4:1],1,{4}2,
{8}4,3,{4}2-8-6-1-3[2:1],{2}2/6,
{4}Ch[4:1],4-1[8:1],{8}4/7,6,{4}5<8[8:1],
5/2,3-1-5-2[8:3],{8}3/6,7,{4}8,
7v4[8:1],{8}7,2,{4}3-1[8:1],1-5[8:1],
{8}8,7,{4}6>8[4:1],{24}E6,E5,E4,E3,E2,E1,{4}A8/D8/A7/E8,
7x-4[8:1],{16}4-8[8:1],3x,{8}2x,{4}1x-5[8:1],7/1,
{8}4/8,3,{4}2-4-1-5[8:3],{8}2/5,6,{4}7,
8-4-8b[4:1],8bx/Cf,{8}3,2,{4}1>4[8:1],
1/6<1[8:1],6/3<6[8:1],3x/8x>3[8:1],5xw1b[8:1],
{1}Cf/B5/B1/A1/5bx>5[2:3],
{4},,,,3h[4:3],
4,4,4,
5/3qq4[2:1],6,7,8,
8h[4:3],5,5,5,
5/8qq4[2:1],4,3,2,
2h[4:3],5,5,5,
3qq8b[2:1],4,5,6,
{16}5/7xh[16:3],,,5,{8}7,7,,7/E1,,7/E2,
,7h[8:3]/E3,,4,{16}4,,,4,,,{8}3,
{16}5/3h[16:3],,,4,{8}3,3,,3/E1,,3/E8,
,3h[8:5]/E7,,E6,,4,{4}4,
{16}5x/2x,,,5,{8}3,6,{16}4x/7x,,,4,{8}6,3,
{16}2x/8x,,,2,{8}8,8,{16}7x/1x,,,7,{8}1,1,
6,6,8,8,{16}7,1,7,1,6,2,5,3,
{4}4z8[4:1],8-4b[8:1],,Cf,
7x-4[8:1]/1x-4[8:1],7/1,{8}5x/3x,{16}3,4,{8}3,{16}6,5,
{8}6,{16}3,4,{8}3,{16}6,5,{8}6,7,8/4,{32}E8,B7,B6,E6,
{8}5x/3x,3,2x/6x,3,6/4,{16}6,5,{8}7,{16}3,4,
{8}2,{16}6,5,{8}7,{16}3,4,{8}1w5[8:1],1,{4}1x,
{8}7/3,6/2,5/1,2,3/7,{16}6,4,{8}8,{16}3,5,
{8}1,{16}7,4,{8}8,{16}2,5,1x,,,2x/5x,,,7x/4x,3x/8x,
{8}2x-6[8:1]/1x-5[8:1],2x/1x,{4}2x/1x,{8}7x/4x,{16}7,5,{8}8,{16}2,4,
{4}1-5[8:1],1/8,{8}7b/3b,{16}8,2,{8}8,7/3,
{4}6b/4b,{16}2-6[8:1],8,2,8,{4}2<7[8:1],4/2>5[8:1],
2/8-4[8:1],8/3,{16}2/5,,,7/4,{48},,,,,,{24}4x,3x,2x,
{8}7x/1x-5[8:1],8,{4}3/1>4[8:1],7/1<6[8:1],{8}1/5,{16}4,4,
{8}7v4[8:1],6,7/3>8[8:1],2,{16}3/7,6,5,4,3,2,1,8,
{4}7w3[8:1],7x,1w5[8:1],1x,
8w4b[8:1],8x,1<6[8:1]*>4[8:1],1bx,
{8}7/3,2,1/6,5,4/2,3,4/7,6,
{4}5<1[4:1],1>5[4:1],5<1[4:1]*<1[4:1],1,
{2}Cf,6h[2:1]/B4,
{8}5,4,{4}3h[4:1],{2}B7,
4/2h[2:1],B5,
{8}5,6,{4}7h[4:1],{2}E1,
8h[2:1]/B2/E3,4,
{8}2,3,{4}4h[4:1],{2}D6/A5,
2h[2:1]/E4/B4,6,
{8}7,6,{4}5h[4:1],{2}4>3>2<1[8:1],
{4}6/8h[4:3],E6,E7,E8,
8<5[2:1],1,2,3,
4/6h[4:3],E3,E4,E5,
4>1[2:1],5,6,7,
2/8p4[2:1],1,2,3,
5/3p7[2:1],4,5,6,
{8}8,8,6,6,1,1,7,7,
{16}2,8,2,8,1s5b[4:1],1,1,1,{2}1,
{4}8bx/1bx-3[8:1],6/1-7[8:1],5/1-3[8:1],6/1-7[8:1],
5h[16:3]/1-3[8:1],{8}1-7[8:1],6,{4}6/1-4[8:1],{8}5/1<7[8:1],5,
{4}6h[16:3]/1>3[8:1],{8}1-4[8:1],6,5/1-5[8:1],5,6/1-7[8:1],6,
{4}1/6-2[8:1],6/3-5[8:1],3/8-4b[8:1],8w4[8:1],
8b,{8}2/8-6[8:1],2,{4}3/8-2[8:1],{8}4/8-6[8:1],4,
{4}3h[16:3]/8-2[8:1],{8}8-6[8:1],4,{4}4h[16:3]/8-3[8:1],{8}8<6[8:1],4,
4/8-5[8:1],4,3/8-4[8:1],3,2/8<5[8:1],2,1/8-4[8:1],1,
{4}8/1-5[8:1],1/7-3[8:1],7/1<5b[8:1]*>5b[8:1],1x,
{8}2-4[8:1],{16}5,5,{8}2-6[8:1],7,2-5[8:1],8,2-8[8:1],7,
2/7<4[8:1],6,7/3-8[8:1],2,3/6-4[8:1],5,{4}6/2,
{8}7-5[8:1],{16}4,4,{8}7-3[8:1],2,7-4[8:1],1,7-1[8:1],2,
7/2>5[8:1],3,2/6v1[8:1],7,6/3>8[8:1],4,{4}3b/7b-5[8:1],
{8}2b/7b-1[8:1],{16}3,3,{8}7-3[8:1],4,7-4[8:1],2,7,1,
2/5,{16}3,4,{8}3,{16}5,4,{8}5,6,7/4,8/3,
2-4[8:1],1-5[8:1],2-6[8:1],1-7[8:1],2-4[8:1],1-5[8:1],2-8<7-3<4-6b[4:3],1,
,,,,,,{4}C,
{16}3b/8b<5[8:1],,,1,{8}8,2,{16}1x/7x<4[8:1],,,2,{8}7,1,
{16}2x/6x>3[8:1],,,1,{8}6x,2,1x/4x,2x/5x,{4}6b/3b,
{16}1x/7x-5[8:1],,,8,{8}7,1,4/2,5/3,7x/1x,8,
{16}8x/2x-4[8:1],,,7,{8}2,8,{4}1bw5b[8:1],1b,
{16}6x/2x>5[8:1],,,8,{8}2,7,{16}7/3x<6[8:1],,,8,{8}3,7,
{16}7x/4x-8[8:1],,,6,{8}4,{16}7,7,{8}1-4[8:1]*-6[8:1],2/8,{4}1bx,
{16}7x/3x-5[8:1],,,8,{8}3,7,{16}7xh[8:1]/5xh[8:1],,,6xh[8:1]/4xh[8:1],,,{8}5x/3x,
7x/1x>4[8:1],{16}6,6,{8}1x-6[8:1],{16}8,8,{4}1x-5b[8:1],1bx,
{8}7x/3x,{16}8,8,{8}2x-5[8:1],7,2x-8[8:1],{16}6,6,{8}2x,5,
6x/1x,{16}8,7x,{8}8,1,8x<5[8:1]/2x>5[8:1],7/3,{4}8x/2x,
{8}7x/3x,{16}4,4,{8}7x-5[8:1],3,7x>2[8:1],{16}2,2,{8}7x,3,
4x/8x,{16}5,7,{8}5x,8,7x-4[8:1]/4x-1[8:1],8/3,{4}7x/4x,
{8}5x/2x>5[8:1],{16}8,8,{8}2x-8[8:1],7,2x-4[8:1],6-1[8:1],2x,6,
5x,{16}8,4,{8}7x,{16}1,5,{8}2x,6,7x/3x,4/8,
1x/5x,4,8x/3x,7,6x/1x,2,{16}3<1[4:1],5,3,5,
{4}3,5h[4:1],{8}2,{16}6,6,{8}4x,5x/3x,
6/2,{16}1,7,{8}1,8,2-6[8:1],6-1[8:1],2,8,
7<4[8:1],2,7/3,2,{16}3x,4,,6x,{8}5,7x,
8/3,{16}1,2,{8}1,3,8-4[8:1],4-7[8:1],8,2,
3V15[4:1],8,3/8,7,7,{16}6,5,{8}6,7,
8/4,{16}1,3,{8}1,8,2-6[8:1],6-3[8:1],2,7,
8-4[8:1],1,8/2-5[8:1],3,2x/7x,{16}6,6x,{8}4,7x,
8/2,{16}1,1,{8}1,8/2,1x/7x-4[8:1],2-8[8:1],7-3[8:1],2,
{2}7V51[4:1],{4}2-6[8:1],2bx/8x,
{8}7/4,8,1/2,{16}3,3,{8}8-6[8:1],4-8[8:1],8,4,
5,{16}1,4,{8}2,5,{16}3x,4,2,5x,4,6,{8}1x,
7/8,6,5/1,{16}2,2,{8}4-7[8:1],1-5[8:1],4,1,
8,{16}7,5,{8}7,4,{16}6x,5,7,4x,5,3,{8}8x,
1/2,3,4/8,{16}5,5,{8}7-5[8:1],3-8[8:1],7,3,
4,{16}1,5,{8}2,4,{16}3x,4,2,5x,4,6,{8}2,
7/1,{16}8,2,{8}8,3,7/4,{16}5,6,{8}5,7,
{16}4,8,4,8,3,7,3,7,{24}2,1,8,7,6,5,{4}4x-8b[8:1],
{32}B4,Cf,{16}B8,{32},,,,,,,,,,,,E4,B4,,,,,,,,,,,,,,,{8}5,
4,{4}3h[4:1],{32}E7,B6,,,,,,,,,,,,,,,{2}7h[2:1],
{32}A1,D1,,,,,,,,,,,,,,,{8}6,
6,{4}4h[4:1],{32}B8,B7,,,,,,,,,,,,,,,{8}8,
8,{4}8h[4:1],{32}B5,E6,,,,,,,,,,,,,,,{4}3,
2h[4:1],{32}B1,B8,,,,,,,,,,,,,,,{2}6h[2:1],
{32}D4,A4,,,,,,,,,,,,,,,{8}4,
3,{4}2h[4:1],{2}C,
{4}8qq4<3[2:3],1,1,1,
2,3,4,4,
3qq8>7[2:3],5,5,5,
5,6,7,8,
{8}E2,E3,E4,E5,E6,E7,E8,E1,
A1,A2,A3,A4,A5,A6,A7,A8,
{16}A1,A2,A3,A4,A5,A6,A7,A8,{32}E1,E2,E3,E4,E5,E6,E7,E8,E1,E2,E3,E4,E5,E6,E7,E8,
{4}E1/Ch[4:3],,,E1f/D1/A8/B8/B1/A1,
2>3<4<5<6<7>8[4:5],1,1,1,
1,1,{2}1bw5b[8:1],
{4}3-8[8:1],5/3,{8}6x/1x,{16}7,8,{8}7,6x/1x,
2>5[8:1]/5<8[8:1],1x,{4}2/5xqq1[8:3],7x-4[8:1],7,
{24}6xh[24:5],E8,E7,E6,E5,E4,{4}2x,{8}7x/3x,{16}4,6,{8}4,7x/5x,
8<5[8:1]/4p8[8:1],7x,{4}4/8pp4[8:3],4x<7[8:1],4x,
3/8-4[8:1],8/1,{8}5x/2x,{16}3,4,{8}3,5x/2x,
6<1[8:1]/1>4[8:1],2x,{4}6/1qq6b[8:3],{16}5,4,3,2,{4}1x,
{16}1x/7<4[8:1],,,1,{8}7,2,{16}5x/1x>4[8:1],,,6,{8}1,7,
{16}3x/8x-4[8:1],,,2,{8}8,3,6x-1[8:1]/2x-5[8:1],1/5,{4}6/2,
{16}8x/2x>5[8:1],,,8,{8}2,7,{16}4x/8x<5[8:1],,,3,{8}8,2,
{16}6x/1x-5[8:1],,,7,{8}1,6,{16}4z8s4[8:5],7,4,7,{4}4,
{8},,,,7x/3x,{16}2,8,{8}2,7/1,
6/2,{16}3,5,{8}3x,6/4,{16}5,7,{8}5,8x/4x,7/3,
6/2,{16}3,5,{8}3x,{16}6,4,{8}6x,7,8/2,7/3,
{16}4,6,4,6,3,7,3,7,2,8,2,8,{8}1x,1,
1x/7x,2,3x/6x,{16}4,5,{8}3xh[8:1],4,2x/5x,2,
1/7,{16}6,8,{8}6x,5/1,5x/1x,{16}2,4,{8}3xh[8:1],5,
4/6,6,6x/4x,{16}7,5,{8}8x,7/1,6x/2x,5/3,
2x/4x,{16}3,5,{8}3,{16}6,4,{8}6,{16}3,7,2,8,1,7,
{8}2x/6x,{16}3,5,{8}4,{16}7,5,{8}6,7x/4x,6/3,5/2,
1x/4x,{16}2,5,{8}3,4/6,7x/5x,{16}8,5,{8}8x,7,
6x/1x,{16}2,5,2,5,{8}2,{16}7,4,7,4,{8}7x,8/3,
{16}2x,1,2,1,3,8,3,8,4,7,4,7,5-1b[8:1],8,4,6,
{64}5x>5>1<5>3>1<7<5>4>3>2<1<8<7<6>5[2:15],Cf,{1},,,,,,,{4},,,{16},,,{32},{8}Cf/1q3[16:27],
,,,,A6h[16:3],,,D7h[16:3],
,,A6h[16:3],,,{4}D7h[16:3],
{16},,,6pp5>4[16:25],,D4h[8:1],,,,A3h[16:3],,,{4}B3,
{16}D4h[16:3],,,,,B4,,A3h[16:3],,,{8}B3,{4}E4/B4,
{8}1qq8>5[2:7],1,,,,D6h[16:3],,,A6h[16:3],
,,A5h[16:3],,,{4}A6h[16:3],
{8},B7,{4}A7h[16:3],{8},A6h[16:3],{16},B6,,,{4}E8/A7,
{8}B6,E6/A6,,B7,{4}E8/D8/A7,
{2}B4h[4:11]/B3h[8:29]/B2h[4:13],{16}7,,,7,,,{8}7,
{16},7,,,7,,,7,,,{8}7,{16},7h[8:3],,,,,,,,6xh[8:1],
,,,,{8}6,,6x,
,6,,6x,,7xh[8:1],{16},,,,B7h[8:29]/A7h[4:11]/E8h[4:13],
,,,,,,3,,,{8}3,{16},3,,,3,
,,3,,,{8}3,{16},3,,,3,,,3h[4:1],
,,,,,4xh[8:1],,,,,{8}4,,,{4}4,
{8}3,3,,2,{4}2x,
8bx/2bx,{8}7/3,6/4,{16}5/3x-8[8:1],,,4,,,{8}6,
1/7<4[8:1],8,{4}7/1V35[4:1],{8}1x/6x,7,{4}8,
5/7h[4:1],{8}6,5,{4}8x/4x-1[8:1],{8}7/4,7,
6/2,{16}3,5,{8}3,2,{4}5x/1x>4[8:1],7x/1x,
6-4[8:1],{8}6/3,2,{16}5x/1x-5[8:1],,,6,,,{8}7,
8<5[8:1],7,{4}8/3V16[4:1],{8}6x/3x,5,{4}4,
7/5h[4:1],{8}8-4[8:1],1,{4}2x/8x,{8}3/5,3,
6x/2x,{16}8,8,{8}8w4b[8:1],7/1,{2}8bx-6>4-7-3-8[1:4]*-2>4-1-5-8[1:4],
{1},,,,{16}5/E3,
,,E2,{8}5,A1,5,A2,5,A3,
{16}4/E7,,,E6,{8}4,D7,4,D8,{16}5x,1x,5x,1x,
{4}5bxw1[8:1],5bx`Cf,4bxw8[8:1],4bx`Cf,
1bxw5b[8:1],1bx`Cf,7bx-4b[8:1]/3bx-8b[8:1],3bx/7bx>6[2:3],
,,,,,,,B7h[4:1],
{1}4<3[4:5],
{4},,,A2h[4:1],
{1}6<5[4:5],
{4},,,B6h[4:1],
{1}4>5[2:1],
{16}E7,B6,{8}B5,{16}B2,B3,{8}E4,{16}A6,A7,A8,A1,A2,A3,A4,A5,
{4}1h[4:1],6,{16}6,,,E5,{8}6,E4/B4,
A7,3,A6,3,{4}D6h[4:1],C,
6h[16:3],{8}4,B6,{16}4,,,D7,{8}4,D6,
B2,5,B3/A3,5,{4}A4h[4:1],C,
3/E5,3/E6,{16}3,,,E7,{8}3,E8/A7,
3,A6,3,A5,{4}2h[4:1],E5/A5/E6,
6,6/E5/D5,{16}6/D4/E4,,,E3,{8}6,B1/E1/A1,
{16}7x,6x,{8}5x,{16}1x,2x,{8}3x,{16}6,2,7,1,{4}8xw4b[8:1],
{64}8bxqq2[4:7],Cf,{1},{4},,,{16},,,{32},{1}4qq1[4:7],
,7p4[4:7],
,1pp5[8:13],
{2},8-6[8:1],
{8}4h[4:1]/B6,,,4h[4:1],,,{4}4h[4:1],
{8},4h[4:1],,,{4}3-5[8:1],C,
{8}6h[4:1],,,6h[4:1],,,{4}6h[4:1],
{8},6h[4:1],,,{4}7<5[8:1],B4,
{8}3h[4:1],,,3h[4:1],,,{4}5/3h[4:1],
{8},6/3h[4:1],,,{2}7/4-1b[8:1],
{1}Cfh[8:11],
{8},,,1bx,2,2,3/7,7/3,
4bx/6bx,{16}5,7,{8}5,8,{16}7,1,{8}7,6/8,5/1,
4/2,{16}3,5,{8}3,6/2,{16}7,1,{8}7,{16}8,7,6,5,
{8}4/2,{16}3,5,{8}3,7/4,{16}6,5,{8}6,{16}8,7,{8}8,
6/1,{16}2,5,3,6,{8}4,{16}8,7,6,5,1,2,3,4,
{8}7/5,{16}7,5,{8}8,1/3,{16}2,8,{8}2,7/1,6/2,
5/3,{16}2,4,{8}2,5/1,{16}1,6,{8}1,{16}7,6,5,4,
{8}1,{16}2,5,{8}2,6/3,{16}7,4,{8}7,8/3,1/2,
3h[16:1],3h[16:1],7h[16:1]/4h[16:1],7h[16:1]/4h[16:1],{32}5,6,7,8,1,2,3,4,{4}Cf,
{8}7/5,{16}4,4,{8}6,7/3,{16}2,8,{8}2,7/1,6/2,
5/3,{16}2,4,{8}2,{16}6,8,{8}6,7,6/8,5/1,
4/2,{16}3,5,{8}3,7/2,{16}8,1,{8}8,7/1,6/2,
{16}3,4,{8}2,{16}5,4,{8}6,{16}7/8,1,2,3,{8}4/6,6,
7/5,{16}4,6,{8}4,8/3,{16}1,2,{8}1,8/3,7/4,
6/3,{16}5,4,{8}6,7/3,{16}8,7,6,5,{8}4/2,2,
2/5,{16}1,4,{8}1,5/2,{16}4,3,{8}4,5/2,6/1,
{4}8h/7h,6h/4h,{8}7h[16:1]/5h[16:1],8h[16:1]/1h[16:1],4h[16:1]/2h[16:1],5h[16:1]/1h[16:1],
3x/7x,{16}8-4[8:1],2,{8}8,8/3,2-5[8:1],6-1[8:1],2,6,
3,{16}8,2,8,2,{8}8,7/1,2,3/5,6,
4/7<4[8:1],{16}8,3,{8}7,2,1-5[8:1],5-1[8:1],1,7,
8p4[8:1],2,8/3,2,{16}1,2,3,4,{8}5/8,8,
7/2-5[8:1],{16}1,6,{8}2,7,8<5[8:1],4>1[8:1],8,4,
6-4[8:1],{16}8,8,{8}6,1,{16}2,5,2,5,{8}2,1,
8/6,{16}5,8,{8}5,6/2,3-5[8:1],7-1[8:1],3-8[8:1],7,
3-7[8:1],{16}6,6,{8}3,5,{24}8,1,2,3,4,5,6-2[8:1],7,8,1,2,3,
{1}6x/4xV68V24[2:3],
{8},,,,,,,,6/4s8[2:3],
,,6,,,{4}6,
{8},6,,,{4}6,5,
{8}5/1h[4:1],,,4/1h[4:1],,,{4}3/1h[4:1],
{8},2/1h[4:1],,,{4}1-6[8:1]*>4[8:1],1,
{8}A5,A6,A7,A8,{16}A1,A2,A3,A4,A5,A6,A7,A8,
{1}1w5[2:1],
{8}7/3,{16}6,5,{8}6,{16}7,5,{8}7,{16}6,5,{8}6,{16}7,5,
{8}7,{16}6,5,{8}6,{16}7,5,{8}7,{16}6,5,{8}6,{16}7,4,
{8}7,{16}8,3,{8}8,{16}7,2,{8}7,{16}6,1,{8}6,{16}5,1,
{8}5,{16}5,2,{8}5,{16}5,3,{8}5,{16}5,4,{8}5,6/4,
7/3,{16}3,7,{8}3,{16}4,6,{8}4,{16}5,7,{8}5,{16}4,6,
{8}4,{16}3,5,{8}3,{16}4,7,{8}4,{16}5,8,{8}5,7/4,
6/3,{16}2,4,{8}2,{16}3,5,{8}3,{16}4,6,{8}4,7/3,
{4}8h/2h,7h/4h,{8}8/4,7/3,6/2,5/1,
4x/8x,{16}1,5,{8}1,2/6,{16}3,5,3,5,{8}3,6/4,
{16}7,5,{8}6,{16}6,4,{8}7,3-5[8:1],6-1[8:1],3,6,
2,{16}7,1,{8}7,6/2,{16}3,5,{8}3,4/6,5/7,
8/5,{16}7,6,{8}7,{16}5,6,{8}5,7/4,8/3,2/1,
8x/3x,{16}7,4,{8}7,6/3,{16}2,5,2,5,{8}2,4/3,
{16}3,4,{8}2,{16}5,4,{8}6,2-5[8:1],6v1[8:1],2,6,
4,{16}7,5,{8}6,7/4,{16}8,5,{8}7,{16}4,6,{8}3,
5/2,7/1,6/4,8/3,2-6[8:1]/1-5[8:1],3/8,{4}2b/1b,
{8}7/4,{16}6,5,{8}8-6[8:1],3,8-4[8:1],1,8,3,
5/2,{16}1,1,{8}4,5,{16}8,6,8,5,{8}8,4/1,
2/5,{16}3,6,{8}4>1[8:1],8,4-8[8:1],7,4,5,
6/1,{16}8/2,3,{8}4,{16}7/1,6,{4}5h[4:1],{8}4b,2/6,
7/1,{16}8,1,{8}6-1[8:1],2,6-4[8:1],3,6,2,
{16}1,5,1,5,{8}2-5[8:1],7-1[8:1],2,7,3,8/4,
7/3,{16}2,6,{8}1-6[8:1],5,1>4[8:1],7,1,8,
{16}7,5,7,5,8,4,8,4,{8}1bw5[8:1],8/2,{16},,,,3h[32:1],
7h[32:1],1h[32:1],5h[32:1],{4}3b,{8}4/2,{16}1,4,{8}3-1[8:1],5,
3-5[8:1],{16}8,8,{8}3,7,6-8[8:1],5-1[8:1],6,5,
7,{16}6,2,{8}5-7[8:1],1,5-1[8:1],{16}3,3,{8}5,4,
2/8,{16}3,7,2,6,1,5,{4}C,{8}6/4,8/2,
7<4[8:1]/1>4[8:1],5/3,{4}7/1,{8}6/2,{16}1,7,{8}8-3[8:1],6,
6/8-4[8:1],7,7/8,6,6/3,5,4/2,4,
5/1,5/1,2/6,2/6,3/7,7/3,4/8,4/8,
{2}5>2[8:1]/1<6b[8:1],{32}E2,E1,E8,E7,E6,E5,E4,E3,E2,E1,E8,E7,E6,E5,E4,E3,
{2}E2/Cf,7h[2:1]/B5/E5,
{4}5,4,{2}3/E5,
1h[2:1]/E4/B4,C,
{4}4,5,{2}6/B8,
6h[2:1]/B6/E6,D5,
{4}4,3,{2}2/B6,
4h[2:1]/B7/E7,A8,
{4}7,6,{2}5/1-5[8:1],
{4}6/4,{8}7,5,6,4h[4:1],,6h[4:1],
,1h[4:1],,8,{2}8<5[8:1],
{4}4/2,{8}3,5,2,4h[4:1],,1h[4:1],
,7h[4:1],,4,{2}4-8[8:1],
{4}1/7h[16:3],{8}1,6,{4}1/6h[16:3],{8}1,5,
{4}1/5h[16:3],{8}1,4,{4}1/4h[16:3],{8}1,4,
4/2,2,5/3,5,{16}4,6,4,7,4,8,4,1,
{2}4-8[8:5],{4}4w8b[8:1],4bx,
{24}2xh,3,4,5,6,7,8,1,2,3,4,5,6,7,8,1,2,3,{12}8,8,8,
{24}5xh,4,3,2,1,8,7,6,5,4,3,2,{16}8/1,,,7/1,,,{8}6/1,
{24}1/5xh,6,7,8,1,2,3,4,5,6,7,8,{12}3,3,3,{24}1xh,8,7,6,5,4,
3,2,1,8,7,6,{12}2,2,2,{2}4<7[8:1]/1>4[8:1],
{4}8qq5[8:5],8,4b-1[8:1]*-1[8:1],4,
2q4[8:5],2,5b<8[8:1]*<8[8:1],5,
{16}1>4[8:1],8,7,6,,,{8}5,{4}5b-1[8:1]*-1[8:1],5/2,
{8}8x/3x,{16}2,1,{8}2,4x/7x,{32}8,7,6,5,4,3,2,1,{4}8b/4b,
{24}7b,6,5,4,3,2,1,8,7,6,5,4,{12}1,1,1,{24}8b,7,6,5,4,3,
2,1,8,7,6,5,{12}2,2,2,{16}2/5,,,7/4,,,{8}6/3,
{24}2b,1,8,7,6,5,4,3,2,1,8,7,{12}5,5,5,{24}8b,1,2,3,4,5,
6,7,8,1,2,3,{12}7,7,7,{2}8<5[8:1]*>3[8:1],
{4}4qq5[8:5],{16}5,6,7,8,{4}1b-6[8:1]*-6[8:1],1,
7qq4[8:5],{16}4,3,2,1,{4}8b>3[8:1]*>3[8:1],8,
{16},,A1,D2,A2,D3,A3,D4,{4}A4f/5b-1[8:1]*-1[8:1],5,
{8}8b/2b,{16}7,7b/4b,,3,{8}5b/3b,{16}6,4,7,3,8,2,7,1,
{4}8bw4[8:1],8b,1bw5[8:1],1b,
8bw4b[8:1],8b,{8}6b/2b,{16}3,3/7,,,{8}8/4,
{24}5/1,6,7,8,1,2,3,4,5,6,7,8,{4}1bw5b[8:1],1b,
8bw4b[8:1],8b,{2}6-1[8:1]/2-5[8:1],
{8}8x/4x,{16}5,7,{8}5-2[8:1],8x,8/5-8[8:1],6,5x/1x,2,
3/7,{16}6,4,{8}5-7[8:1],2x,1/5-1[8:1],4,5x/8x,8,
7/2,{16}8,3,{8}8<5[8:1],4x,2/8v3[8:1],1,6x/8x,7,
6/2,{16}5/1,6/2,{8}7/3,{16}8/4,7/3,{2}6bx-1[8:1]/2bx-5[8:1],
{8}8bx/4bx,{16}5,7,{8}5,5,8b/5b,{16}4,7,{8}4,{16}4,6,
{8}6/4b,{16}5,7,{8}5,{16}8,8,{2}5p1[8:1],
{8}8b/6b,{16}5,1,{8}5,{16}5,2,{8}5b/2b,{16}5,3,{8}5,{16}5,2,
{8}2b/5b,{16}5,3,{8}5,{16}4,4,{2}6-3[8:1],
{8}5x/2x,{16}3,4,{8}3,2/5,6/1b>4[8:1],{24}5,6,7,{8}8,8,
8x/5x,{16}7,4,{8}7,6/5,7b<4b[8:1],{24}3,2,1,{12}8,,B1,
{24},B6,,,{12}B4,{48}B7,,,E3,,,{8}Ch[8:13],,,,,,,,,,,,,,,,,{4}E6/B5,
{8}A3,D4,
A4,,,E8,{4}E1,{16}D7,A6,D6,A5,
{1}B2,
{8}C,{16}E4,B4,B5,E6,{8}B7/E8,A2/D2,E5/B5,E3/B3,B8,
,,,4,6,5,7,7,
4h[8:3],,,5,{4}6,{8}5>1[4:1],6,
7,,,8,8V64[4:1],4,3,2,
1,,,2,{4}2-6[8:1],C,
{1}5h[4:7]/7-4-2-8-6[2:3],
,7h[4:7]/4v7-1V36[2:3],
,4h[2:3]/8>8[4:5],
{8},,,,,,3,5,
{4}4,{8}7,7,,5h[4:1],,6h[4:1],
,8,{4}8-4[4:1],,,{1}Ch[4:13],
,,{4},,{32}1,
2,3,4,5,6,7,8,{4}1b/Cf,
{16}1,1,1,1,1,1,1,1,1,1,1,1,1,1,1,1,
1,1,1,1,1,1,1,1,{2}A2f/E2/D2/B2/E3/D3,
{16}5,5,5,5,5,5,5,5,5,5,5,5,5,5,5,5,
5,5,5,5,5,5,5,5,{2}A6f/D7/E7/E6/B6/D6,
{16}7,7,7,7,7,7,7,7,7,7,7,7,7,7,7,7,
7,7,7,7,7,7,7,7,{2}A8f/D8/E8/B8/E1/D1,
{16}3,3,3,3,3,3,3,3,3,3,3,3,3,3,3,3,
3,3,3,3,3,3,3,3,{4}A4f/E5/B4/E4/D4/D5,8b,
{16}6bh[32:1],6h[32:1],6h[32:1],6h[32:1],6h[32:1],6h[32:1],6h[32:1],6h[32:1],6h[32:1],6h[32:1],6h[32:1],6h[32:1],6h[32:1],6h[32:1],6h[32:1],6h[32:1],
6h[32:1],6h[32:1],6h[32:1],6h[32:1],6h[32:1],6h[32:1],6h[32:1],6h[32:1],{32}6b,5,4,3,2,1,8,7,{4}6,
{16}8bh[32:1],8h[32:1],8h[32:1],8h[32:1],8h[32:1],8h[32:1],8h[32:1],8h[32:1],8h[32:1],8h[32:1],8h[32:1],8h[32:1],8h[32:1],8h[32:1],8h[32:1],8h[32:1],
8h[32:1],8h[32:1],8h[32:1],8h[32:1],8h[32:1],8h[32:1],8h[32:1],8h[32:1],{32}8b,1,2,3,4,5,6,7,{4}8,
{16}2bh[32:1],2h[32:1],2h[32:1],2h[32:1],2h[32:1],2h[32:1],2h[32:1],2h[32:1],2h[32:1],2h[32:1],2h[32:1],2h[32:1],2h[32:1],2h[32:1],2h[32:1],2h[32:1],
2h[32:1],2h[32:1],2h[32:1],2h[32:1],2h[32:1],2h[32:1],2h[32:1],2h[32:1],{32}2b,3,4,5,6,7,8,1,{4}2,
{16}4bh[32:1],4h[32:1],4h[32:1],4h[32:1],4h[32:1],4h[32:1],4h[32:1],4h[32:1],4h[32:1],4h[32:1],4h[32:1],4h[32:1],4h[32:1],4h[32:1],4h[32:1],4h[32:1],
4h[32:1],4h[32:1],4h[32:1],4h[32:1],4h[32:1],4h[32:1],4h[32:1],4h[32:1],3xh[32:1],5xh[32:1],3xh[32:1],5xh[32:1],2xh[32:1],6xh[32:1],2xh[32:1],6xh[32:1],
1x,2x,3x,4x,8x-4[8:7],7x,6x,5x,{4}4x,D8,
D7,{8}D6,D5,{32}1x,2x,3x,4x,5x,6x,7x,8x,{8}1x,1x,
5b/1b>4[8:1],2,{24}1/5x-2[8:1],6,7,8-4[8:1],,,{8}5,8,1x,3b/5b,
{24},,,7/4-7[8:1],3,2,{8}1,{24}4/8-4[8:1],1,2,{8}3,8-6[8:1],3,8/3x-5[8:1],
,3/1,8,{24}2/8-4[8:1],7,6,{8}1/5-1[8:1],8,5,2,
7<4[8:1],{24}4,3,2,{8}1/7-3[8:1],{24}8,1,2,{8}3/7,{24}2,1,8,{4}5b,
{8}3b/8b<5[8:1],7,{24}8/4x-7[8:1],3,2,1-5[8:1],,,{8}4,1,8x,6b/4b,
{24},,,2/5-2[8:1],6,7,{8}8,{24}5/1-5[8:1],8,7,{8}6,1-3[8:1],6,1/6x-4[8:1],
,6/8,1,{24}7/1-5[8:1],2,3,{8}8/4-8[8:1],1,4,6,
2,3/5,4/6,7/3,{24}8b,7,6,4b,3,2,{32}7bh,6,5,4,3,2,1,8,
{8}7x-3[8:1]/3x-7[8:1],7x/3x,,,5x-1[8:1]/1x-5[8:1],5x/1x,,,,,,,{4}Cfh[4:1],
B7/B6/B2/B3/E7/E3,
{8}4/1<6[8:1],8,{24}1/5-1b[8:1],4,3,2-6[8:1],,,{8}5x<8[8:1],2,5,{24}1-5[8:1],2,3,
{8}4>1[8:1],1x<8<7<6[32:3],4,8,{32}5,4,3,2,1,8,7,6,{4}5b,
{8}2b/6-8[8:1],{24}1,2,3,{8}4/6,1>4[32:3],8x,1/7,{24}5x-2[8:1],6,7,8<5[8:1],,,{8}5b,
8,{24}1-6[8:1],2,3,4-8b[8:1],,,{8}1-5[8:1],4,1,3,
{24}6b,7,8,3,2,1,{16}5,1,5,1,{24}5b,6,7,2b,3,4,{16}8,5,8,5,
{32}4bx/8bh[1:1],3,2,1,,7,6,5,4b,3,2,1,,7,6,5,4b,3,2,1,,7,6,5,4b,3,2,1,,7,6,5,
{1}4bw8b[8:9],
{32},,,,,,,,,,,,,,,,1b,8b,7b,6b,5b,4b,3b,2b,{48}1b,B1,Cf,B5,,,,,,,,,{16}7-5[8:1],
6,{8}8,7/2,{24}4-8[8:1],3,2,6x-1b[8:1],7,8,4,,,{8}6bx,{24}2,3,4,
{8}5v8[8:1],{16}7,7,{8}5,6,{24}1x,2,3,4/7,,,{8}3x/8x<5[8:1],7,
8x/3,{24}4-8b[8:1],3,2,{8}1>4[8:1],4,1,{24}5,6,7,{8}3x/8x-4[8:1],{16}2,2,
{8}8,3,1/5,7/3,{12}2b/6b,2b/6b,2b/6b,8b/4b,8b/4b,8b/4b,
{4}C,{8}1b/6b<1[8:1],2/5,6/1,{24}2,3,4,{8}5x-1b[8:1],7,
5/8,{24}8x-3[8:1],7x,6x,{8}5x-1b[8:1],8,5,2,{24}2b,3,4,5,6,7<6>5>4qq7[24:37],
{1}8bx>1>2>3<4qq7b[2:3],
{16},,,,,,,,,,,,,,,,1b,
8b,2b,7b,{24}1b,2,3,4/6,{48},{16}6,2,2,5,5,{24}1,2,3,7/4,{48},{16}7,
2,2,5,5,{24}3,2,1,4,5,6,{8}7/1,{24}7bx/1bx,6/2,5/3,{8}4,{24}2bx/8bx,3/7,4/6,
{8}5,{16}7,7,{24}2x,3,4,8x,7,6,{8}5/1,{24}2x,3,4,8x,7,6,5/3,,,2,
3,4,1,2,3,7,6,5,8,7,6,{32}1b,8,7,6,5,4,3,2,{4}1/Cf,
{16}8,2,7,3,{24}6b,5,4,2b,3,4,{16}8,5,7,4,{32}8b,1,2,3,4,5,6,7,
{16}8,3,7,2,{24}8b,7,6,1b,2,3,{16}6,5,7,4,{32}8b,1,2,3,4,5,6,7,
{16}2b,8,4,6,3b,7,4,5,1b,6,3,5,{24}3b,2,1,6b,5,4,
1b,4,1,4,1,4,1b,8b,7b,6b,5b,4b,1b<1-7-5[8:3],8b<8-6-4b[8:3],7b<7-5-3[8:3],6b>6-4-2b[8:3],5bV31<5V31[8:3],4b>4-2-8b[8:3],{4}D1/E1/B1f/E2/D2/1x-5[2:15]*-5[2:15],
{1},,,,,,,,A3h[2:15],
{8},,,,E8,E7,E6,E5,
{1}E4h[8:45],
{8},,,,A8,A7,A6,A5,
{1}D4h[4:15],
{8},,,,D8,D7,D6,D5,
{1}A4h[8:15],
{8},,,,,,,C,
E
