&title=サイバーパンクデッドボーイ
&artist=マイキP(feat. ワンダーランズ×ショウタイム & 鏡音リン)
&first=0
&des=YYlY
&clock_count=4
&lv_5=13
&inote_5=(157)
{1},,Ch[4:12],,
{4}E4,E3,E2,E1,
{8},1/8,4/5,2/7,3-7[8:1]/6-2[8:1],,3/6,,1b/8b,,6/3,3/6,
{16}7-4[8:1],8,,8,7,,1,,7-4[8:1],8,,8,7,,2,,7-4[8:1],8,,8,7,,3,,2/8,,,,7/4,,4/7,,6-1[8:1],5,,5,6,,3,,2h[8:1],,
{8}4,6h[8:1],5,7-4[8:1]/4,,7/3,,5b/2b,,3/7,3/7,
{16}2-5[8:1],1,,1,2,,8,,2-5[8:1],1,,1,2,,7,,2-5[8:1],1,,1,2,,6,,7/1,,,,2/5,,2/5,,3-8[8:1],4,,4,3,,6,,3-8[8:1],4,,4,3,,7,,6-1[8:1],,5-2[8:1],,6,,5,,
{8}8-5[8:1],,4,,3v6[8:1],2,1,,
{16}2h[8:1],,4,3,,5,4,,6/3,,,,7h[4:1],,6,,
{8}5h[4:1],6,7h[4:1],6,8,,1h[4:1],8,7h[4:1],8,1h[4:1],8,7h[4:1],E2/B1/B2,
E2/B1/B2,,
{8}1-4[8:1],,5,,6v3[8:1],7,8,,
{16}7h[8:1],,5,6,,4,5,,3/6,,,,2h[4:1],,3,,
{8}4h[4:1],3,2h[4:1],3,1,,8h[4:1],1,2h[4:1],1,8h[4:1],1,2h[4:1],E8/B8/B7,
E8/B8/B7,,
{16}3h[16:2],,5,4,,6,2h[8:1],,5,4,,6,1h[8:1],,5,4,6-1[8:1],,7,,6/2-6[8:1],,3,,2/8,,,,7,,1,,
6h[16:2],,4,5,,3,7h[8:1],,4,5,,3,8h[8:1],,4,5,3-5[8:1],,2,,3/6-2[8:1],,7,,1-5[8:1]/6,,8-4[8:1],,1,,8,,
2h[8:1],,4,3h[8:1],,4,2,,5/1,,,,8,1,8,1,7h[8:1],,5,6h[8:1],,5,7,,4/8,,,,2,,3,,
{8}4>1[8:1],4,5,6,7<4[8:1],7,8,1,2h[4:1],3,4h[4:1],3,1p2[16:3],8,7,,
{4}5pp3[8:3],,4x-1[8:1],,6pp3[8:3],6,4x-1[8:1],,7pp3[8:3],,4x-1[8:1],,8pp4[8:3],8,3x,3x/5x,
4qq6[8:3],,5x-8[8:1],,3qq6[8:3],3,5xw1[8:1],5,
{16}3h[16:3],,,4h[16:3],,,5>2[8:1],,,,6x,,6x,,,,
{16}7h[16:3],,,6h[16:3],,,5<8[8:1],,,,4x,,4x,,3,,
{8}1/2,3,4/5,6,8/7,6,5/4,
3,2/4,3,7/5,6,
{16}4,5,3,6,4,5,3,6,
{1}2s6[4:2],
{16}3b/7b,,,1b/5b,,,3bh[8:4]/7bh[8:4],,,,,,,,,,
{64}A2f/6b,D2,A1,D1,A8,D8,,,
{8},
{64}A7f/6b,D8,A8,D1,A1,D2,,,
{8},7/5,6,3/5<3[4:1],4,5/7h[4:1],,,5,3/4,1,5/6,8,3-8[8:1]b/7-4[8:1],,3b/7b,,1-5[8:1]/6,2/5-1[8:1],1/6>7[16:4]b,7,6,,,2,4v1[8:1]b*v7[8:1],,4b,,2V48[16:3]b/6-1[8:1],,2/6,,7V51[16:3],7,3,3h[4:1],,8>3[8:1],7,6/8,,5-1[8:1],4,5,
{16}2,,6,5,,3,4,,6,5/7,,3,2/4,,5b/1bs5[4:1]b,,,,6,,6,,7,,8-4[8:1],,,,2q7[8:1]/8,,,,
{8}2b/6bq3[8:1]b,,6b/3b,,
2/4,3,6/4>6[4:1],5,4/2h[4:1],,,4,6/5,8,4/3,1,6v1[8:1]b/2v5[8:1],,6b/2b,,8-4[8:1]/3,7/4-8[8:1],8/3<6<7>2[16:4]b,2,3,,,7,6p2[8:1]b/4q8[8:1],,4b/6b,,7V51[16:3]b/3-8[8:1],,3/7,,2V48[16:3],2,6,6h[4:1],,8p4[8:1],1,2/8,,
3<6[8:1],6,3,
{16}7,,2,1,,7,8,,2,4/3,,7,6/5,,8/4,,,,
{8}1/8,4/5,2/7,3-7[8:1]/6-2[8:1],,3/6,,,8b/1b,6b/5b,8b/1b,3b-7[8:1]b/4b-8[8:1]b,,4b/3b,,
{32}2b/6bh[4:7],3,4,5,,7,8,1,2,3,4,5,,7,8,1,2,3,4,5,,7,8,1,2,3,4,5,,7,8,1,2,3,4,5,,7,8,1,2,3,4,5,,7,8,1,2,3,4,5,,7,8,1,2,3,4,5,6,7,8,1,
{16}2xb/6b,,,,1/8,,1/8,,3<5[8:1],5,,5,3,,7,,2q6[8:1],6,,6,2,,8,,1p4[8:1]/7q4[8:1],,2,,1/7,,,,
{16}2b/6b,,,,3/7,,3/7,,6>4[8:1],4,,4,6,,2,,7p3[8:1],3,,3,7,,1,,8V64[8:1],2,,2,8,,1,,2b/6b,,,,1/7,,1/7,,2-6[8:1]b,6,,6,2,,8b,,,,1b/7b,,3b/4b,,2b/8b,,5b-1[8:1]b/6b-2[8:1]b,,,,5b/6b,,,,
3b/7b,,,,2/6,,2/6,,5-8[8:1],3,,3,5,,4,,5-2[8:1]b,7,,7,5,,6,,5-8[8:1],3,,3,5,,4,,5b/7b,,,,2/8,,2/8,,3-7[8:1]b,4,,4,3,,6,,5-1[8:1],4,,4,5,,2,,4-8[8:1]b*-7[8:1],,5,,4b,,,,
6b/2b,,,,7/3,,7/3,,4-1[8:1],6,,6,4,,5,,4-7[8:1]b,2,,2,4,,3,,4-1[8:1],6,,6,4,,5,,4b/2b,,,,7/1,,7/1,,6-2[8:1]b,5,,5,6,,3b,,,,
{8}1/8,4/5,2/7,3-7[8:1]/6-2[8:1],,3/6,,
{16}1/8,,3,2/4,,6,7/5,,2,3/1,,7,8/6,,4/3,2xbh[16:9]/5xb,,,,,,,,,
{32}E1,E8,E7,E6,D5,D4,D3,D2,C/D1f,
E
