&title=Lost My Mind (feat. nakotanmaru)
&artist=PIKASONIC; なこたんまる
&first=-1.164
&des=ReaL2sN
&lv_5=13+
&inote_5=(155)
{1},
{1},
{1}4>1[1:1],5<8[1:1],5-2[4:3],
{4}4-7[4:3],E1,E2,E3,
{1}4pp1[2:3],8^6[2:1],
{4}5qq8[2:3],,,,Chf[1:1],,,,
{4},3,4<8[8:3],4h[4:1],
{8},2,,,3,,5,4h[4:1],,
{8}5,4,6h[4:1],,5,6,4h[8:3],
{8},,3h[4:1],,2h[4:1],,8,1,7,,4,6h[4:1],,5,,4,
{8},,5,3h[4:1],,5,4,6,
{16},5qq8^6[16:17],4,,Ch[8:9],,,,,,,,,,,,
{8},,,,,E4,E3,E2,
{8}5/E1f,,5/E8,,5,E2,5,E3,
{8}5,E4,5,,5,E6,E7,E8,
{8}4/E1,,4/E2,,4,E8,4,E7,
{8}4,,4-2[8:1],,8-5[8:1],,1,1,
{8}5x/3x,,5/3,,5,2,5,4,
{16}5,3h[16:1],{8},5,,5,1,2/5,3,
{8}4/6,,4,7,4,5,4,6,
{16}4,,{8}6,4/5,,4,5,6/4,7,
{8}8/2,2,2/8,2,2/7,2,2/7,2,
{8}2/6,2,2/6,2,2/5,2,2/5,2,
{8}8/6,6,6/8,6,6/1,6,6/1,6,
{8}6/2,6,6/2,6,6/3,6,6/3,6,
{16}4x,5,4,5,4,5,4,5,3x,5,3,5,3,5,3,5,
{16}3x,4,3,4,3,4,3,4,2x,4,2,4,2,4,2,4,
{16}1x,8,2,7,3,6,4,5,5x,4,6,3,7,2,8,1,
{4}C,C,{8}Ch[32:1],2x,1x-5[8:1],8x,
{32}1bx/6bx,Cf,,,,,,,{8},7,5/8^3[8:1],,5,5-1[8:1],
{8},4,,,4^7[8:1],2,1-5[8:1],1,
{8}8,,,5,7,4,5,5p4[4:1],
{8},4,,1,2x/4x,3,4x/5x,6,
{8}5x/7xV52[6:1],,2,,1,1^6[8:1],,4^1[8:1],
{8},7-3[8:1],,,8,1,2,3,
{8}4/8^5[8:1],,8^3[8:1],,8-4[8:1],,8<1b[8:3],,
{16}E1,E8,E7,E6,E5,E4,E3,E2,8x/7x,,6,,5x/4x-8[8:1],,3,,
{8}4bx/2bxz6[6:1],,2,,8x,8x^3[8:1],,5^8[8:1],
{8},2^5[8:1],,,6,7,8,1,
{8}5/2<3[8:3],,,,1-5[8:1],,1,3,
{8}4,2^5[8:1],,6,7-2[8:1],,4,3-6[8:1],
{8},1V74[4:1],,,2^7[8:1],,5,6>7b[8:3],
{8},1h[4:1],,,2x^1^7^5^3^2pp4pp6pp8pp2qq8qq6qq4qq2[4:9],,8h[4:1],,
{1},,Cf,,
{1}3<7[1:1],7V53[8:7],5qq5[1:1],
{4}5pp5[4:3],E1,E2,E3,
{1}4^1qq2[2:3],4-6[2:1],
{4}5^8qq2[2:3],,,,Chf[1:1],,,,
{4},6,5q3[8:3],5h[4:1],
{8},7,,5,6,,4,5h[4:1],,
{8}4,5,3h[4:1],,4,3,5h[8:3],
{8},,6h[4:1],,7h[4:1],,1,8,2,,5,3h[8:3],,,4,2,
{8},,4,6h[4:1],,4,5,3,
{16},4>5[16:17],5,,Ch[8:9],,,,,,,,,,,,
{8},,,,,4/5,6/3,2/7,
{1}A8/A1/E1f/D1,
{32}B6/2?<6[5.845#992:7],B5,,,,,,,,,,,,,,,,,,,,,,,,,,,,,,,
{32}B3/2?<6b[6.885#4096:34],B4,,,,,,,,,,,,,,,,,,,,,,,,,,,,,,,
{32}E6/2?<6[8.375#4096:43],E5,E4,,,,,,,,,,,,,,,,,,,,,,,,,,,,,,
{32}E4/2?<6b[10.685#2048:27],E5,E6,,,,,,,,,,,,,,,,,,,,,,,,,,,,,,
{32}A5/6?<2[13.785#4096:69],D5,,,,,,,,,,,,,,,,,,,,,,,,,,,,,,,
{32}A3/6?<2b[21.400#4096:110],D4,,,,,,,,,,,,,,,,,,,,,,,,,,,,,,,
{32}B3/6?<2[47.775#4096:240],B4,E5,,,,,,,,,,,,,,,,,,,,,,,,,,,,,,
{8},,,3/5,,,3/5,,
{8}1/6,,,6/4,,,6/4,,
{8}8/3,,,3/5,,,3/5,,
{8}1/6,,,6/4,,,6/4,,
{8}8/3,,,3/4,,,3/4,,
{8}1/6,,,6/5,,,6/5,,
{8}8/3,,,3/4,,,3/4,,
{8}1/6,,,6/5,,,6/5,,
{8}8/E2,,E3/8,,8/E4,,8/E5,,
{8}8/E6,,7/8-5[8:1],,8/1-4[8:1],,8/1,,
{8}1/E8,,E7/1,,1/E6,,1/E5,,
{8}1/E4,,2/1-4[8:1],,1/8-5[8:1],,1/8,,
{8}8/C,,E7/1,,8/E3,,1/E5,,
{8}8/E4,,C/1-4[8:1],,1/8-5[8:1],,1/8,,
{8}1/C,,E3/8,,1/E7,,8/E5,,
{8}1/E6,,C/8-5[8:1],,8/1-4[8:1],,8/1,,
{8}5/3,3,2/6,2,3/7,3,2/8,2,
{8}4/6,6,7/3,7,6/2,6,7/1,7,
{8}4/2,2,1/5,1,2/6,2,1/7,1,
{8}5/7,7,8/4,8,7/3,7,8/2,8,
{16}3x,4,3,4,3,4,3,4,2x,1,2,1,2,1,2,1,
{16}4x,5,4,5,4,5,4,5,8x,7,8,7,8,7,8,7,
{16}2x,1,3,8,4,7,5,6,5x,4,6,3,7,2,8,1,
{16}E1,E2,E3,E4,E5,E6,E7,E8,{8}E1,2x,1x-5b[8:1],8x,
{32}1bx/6bx-8[8:1],Cf,,,,,,,{8}6,4,5/8^3-7[6:1],,5,5-1[8:1],
{8},5/4,2-4[8:1],,,7-4[8:1],5-1[8:1],7,
{8}5,,3/4,2,5,4,7,5-1b[8:1],
{8},5,8,7,6/5,4,3x/2x,1,
{8}8x/2xV48[6:1],,2/5,,1,1^6[8:1],,1^4[8:1]/4,
{8},1-5[8:1]/5,,,8,7,6/4,5,
{8}4/3-7b[8:1],,2-6b[8:1]/3,,1-5b[8:1]/2,,1/8,
{16}7x,6,5,4,3x,2,1,,8,,6x/7x,,5,,3x/4x-8[8:1],,2,2,
{8}4bx/1bx-5-7[6:1],,2/1,,8,8^3[8:1],,8^5[8:1]/5,
{8},8-4[8:1]/4,2,,1,2,3/5,4,
{8}5/6<5[8:3],,,,8-4[8:1],,8,6,
{8}3,1^6[8:1],1,6,5-1[8:1],,4/5,2-4[8:1],
{8},8V62[6:1]/2,,,1-5-3[6:1],8,1/7,6<5b[8:3],
{8},1h[4:1],,,2x^8^6^4pp4qq4^6^8^2^4b[4:9],,8h[4:1],,
{1},Chf[1:1],,,,
{1}5h[1:1]/3,
{1}4h[1:1],6h[1:1],
{2}8h[2:1],1h[2:1],8h[1:1],,
{1}4h[1:1],
{1}5h[1:1],
{2}7h[2:1],4h[2:1],
{1}5h[1:1],2h[1:1],4h[1:1],
(150)
{1},
(150)
{1}3h[1:1]/5,
(140)
{1}4h[1:1],Ch[1:2],
E
