&title=光
&artist=茶理理
&first=0
&des=- 尘宝生日快乐!
&lv_5=13
&inote_1=(145)
{8},,,,,,,,,,,,,,,,,,,,,,,,B1,,,B3,,,E8,,E3,,,B5,,,B7,,E4,,,B1,,,A5,,,,,,E1,E2,E3,E4,B6,,,B8,,,E4,,D7,,,E2,,,A3,,Ch[2:3],,,,,,,,,,,,,,,,
3,,,,3,,,,3,,,,3,,,,4,,,,4,,,,5,,,,,,,,6,,,,6,,,,6,,,,6,,,,5,,,,5,,,,4,,,,,,,,
6h[1:1]/1,,,,1,,,,2,,,,2,,,,3/5h[1:1],,,,3,,,,4,,,,4,,,,
8/1h[1:1],,,,8,,,,7,,,,7,,,,6,,5,4,3,2,1,8h[2:1],,,,Ch[32:1],,
,,,2h[4:1],,,3h[4:1],,,4h[4:1]/5-3-7[2:1],,,,,,,,,,7h[4:1],,,6h[4:1],,,5h[4:1]/3-5-1[2:1],,,,,,4,5,6,7,2h[4:1],,,3h[4:1],,,4h[4:1]/5-2-7[2:1],,,,,,,,4,,8h[4:1]/1h[4:1],,,7h[4:1],,,6h[4:1],,,5h[4:1],,,4-8[4:1],,4,,7,,,4,5h[4:1],,,,1,,,4,3p7[4:1],,,,8,,,5,6h[4:1],,,,2,,,5,4-1[4:1],,,,7,,,5,6h[4:1],,,1,,4,,3,,8z4[4:4],,8h[1:1],,,,,,,,,,,,,,,3>6<3[4:7],,5h[2:3],,,,,,,,,,,,,,5-1-5[4:3],,3h[1:1],,,,,,,,1h[2:1],,,,2h[4:1],,6<3>6[4:7],,4h[2:3],,,,,,,,,,,,,,4p8>3[1:1],,6h[1:1],,,,,,,,,,,,,,4,,1/6h[4:3],,2-4[8:1],,2,,1,,8/3h[4:3],,7-5[8:1],,7,,8,,4/6h[4:3],,3-1[8:1],,3,,4,,8-5[8:1]/5,,,,1-4[8:1]/4,,,,3/5h[4:3],,2>4[8:1],,2,,1,,6/4h[4:3],,7<5[8:1],,7,,8,,3/4,,1/2,,7/8,,5/6,,4-7-5[8:2]/3h[4:1],,,,C,
,,,1h[4:1],,,,3h[4:1]/4h[4:1],,,5,6,5,6-2[8:1],,6/5,,,,3h[4:1],,,,1h[4:1]/8h[8:3],,,2,,5,3-7[8:1],,4/3,,8-5[8:1]/1-4[8:1],,1/8,,,,6h[4:1]/5h[4:1],,,4,3,4,3v8[8:1],,3-6[8:1]/4,,
,,1,7,3,6,4,5v7[8:1],,5,2,3,4-2[8:1]*-6[8:1],,4,,1,1,8h[4:1]/2h[4:1],,,,6h[4:1]/5h[4:1],,,4,3,4,3-7[8:1],,3,8,7,6,5,5,4,4qq1[2:1],6/3,,8-5[8:1],,,,2,,3h[8:1]/4h[8:1],,5v2[8:1],6,5/3,,4,4,7h[8:1],,5/3,5/2,,1v4[8:1],8v5[8:1],1>4[8:1],8<5[8:1],1-5[8:1],8<1[2:1],,,,,,3,,8,,4>6[8:3],8,4,,B5,Cf,,,
1>4[4:1]/8h[4:1],,,5,6h[4:1],,,3,7-5-1-5[8:3],4-2[8:1],7,4,,,,,8<5[4:1]/1h[4:1],,,3,4h[4:1],,,5,2-4-8-4[8:3],5-7[8:1],2,5,,,,,8-6-4[4:1]/3h[4:1],,,2,1h[4:1],,,6,5-1[4:1],4-2-5-1[8:3],5,4,,6h[4:1],,Ch[2:1],,,,,,8,3/4,1,5/6,2-5-8[4:1],4/7,2/5,,A8f,,,1q5[4:1]/5,,,6,6h[4:1],,4z8[4:1],5,4/7,6,,7>2[4:1],2,,,,1v4[4:1]/5,,,7,7h[4:1],,2-4[8:1],4-1[8:1],2/1-5[8:1],5-8-4[4:1],,A7,A6f,,
{16}8,7,6,5,4b-6[8:1]/3b,,,2h[8:1],,,2,,1h[8:1]/6h[8:1],,,7h[8:1]/2h[8:1],,,7/2,,8/3,,5h[8:1]/6h[8:1],,,,3v6[8:1]/7v2[8:1],,2/6,,3b/7b<1[16:10],,,,7bx/Cf,,,,,,,,,,,,,,1-3[8:1],,8-4[8:1],,1-5b[8:1],,8-6b[8:1],,,,,,,,,,3>6b[8:4],,,,
{48}7bx,E8,B8,B1,E2f,,
{16},,5,,,,5h[4:1],,,,2,,5,,7/1,,2/6,,5-8[8:1]/3,,,,5/1-5[8:1],,,,1pp4[2:1]/8,,7,,6h[4:1],,,,,,,,8h[2:1],,,,,,,,1-6[8:1],,,,,,,,1-4[8:1],,,,6<3b[2:1],,,,6b/3h[4:1],,,,,,,,4h[4:1],,,,8,,4,,2/8,,7/3,,6/4-1[8:1],,,,4/8-4[8:1],,7,,8<2[2:1],,3,,8b/4h[2:1],,,,,,,,,,,,1/5,,,,1-3[8:1],,1-7[8:1],,1-4[8:1],,1-6[8:1],,,,,,2<5[2:1],3,4,5,6bx/2b,,,,,,,,3h[8:1],,,,7-2-7[4:1]/3-6-3[4:1],,8/4,,7/3,,,,,,,,1-5[8:1],,2,,8-4[8:1],,7,,8b-4-6-8[2:1]*-4-2-8[2:1]/1b,,,,,,,,,,,,,,,,8-5[8:1]*-6[8:1],,,,,,,,8-3[8:1]*-2[8:1],,,,6<3b[2:1],,,,3h[4:1]x,,,,,,,,4h[8:1],,,,8-5-8[4:1]/4-1-4[4:1],,5/1,,8/4,,,,,,,,1-5[8:1]/8-4[8:1],,7/2,,1>1>3[1:1]/8<8<6[1:1],,,,1b/8b,,,,,,,,,,,,,,,,,,,,,,,,,,,,1,,2,,3qq7[2:1]/5h[8:1],,,,5,,5,,6h[8:1],,,,6,,6,,1,,5-2[8:1],,5-8[8:1],,,,,,,,4,,2/7,,3-6[4:1]*-6[4:1]/6,,,,8,,8,,7,,7,,6pp2[2:1]/6-3[4:1],,,,,,,,,,,,,,,,1,,6/4,,3s7s3[2:1],,,,8,,7,,8,,,,E5,,C,,3,,4,,4pp6[4:1]/3h[4:1],,,,,,,,,,1,,6pp5b[4:1]/4,,,,1,,2,,3,,4qq5<5b[16:10],,6b,,6h[8:5]b,,,,,,,,,,,,,,4,5,4,5,4>1[8:1],,3,,4/8<5<5[1:1],,7,,8,,3,,3h[2:1],,,,,,,,,,,,,,1,,5-7-1[4:1],,C,,5/1-3-5[4:1],,,,5<1[4:1],,C,,1>1[2:1]b,,2x,,2h[4:1]x,,,,,,,,,,4/6,,3/7,,2-5[8:1]/8-5[8:1],,1,,8b/2b,,,,,,1/7,,2/6,,5h[8:1]/3h[8:1],,,,1h[8:1]b/2h[8:1]b,,,,8/3,,7/4,,5/6,,,,7/8,,3-1-7-3-5-7-3[8:17]/4-6-1-4[8:9],,1/2,,3b/4b,,,,,,,,,,,,,,,,,,,,,,,,,,,,,,,,,,7-2[4:6]*-2[4:6],,,,A1,,,,B4,,,,B1,,,,E6,,,,E8,,,,A6,,,,C,,,,7-4[4:6]*-4[4:6]/A8,,,,B7,,,,A1,,,,C,,,,A2,,,,B3,,,,D3,,,,D4,,,,7-3[4:6]*-3[4:6]/E1,,,,{160},E3,{32},,,,,,,,E5,,,,,,,,E7,,,,,,,,,B1,,,,,,,,B4,,,,,,,,,B6,,,,,,,,,C,,,,,,,,,,,,,E5,
&inote_5=(145)
{8},,,,,,,,,,,,,,,,,,,,,,,,B1,,,B3,,,E8,,E3,,,B5,,,B7,,E4,,,B1,,,A5,,,,,,E1,E2,E3,E4,B6,,,B8,,,E4,,D7,,,E2,,,A3,,Ch[2:3],,,,,,,,,,,,,,,,
3,,,,3,,,,3,,,,3,,,,4,,,,4,,,,5,,,,,,,,6,,,,6,,,,6,,,,6,,,,5,,,,5,,,,4,,,,,,,,
6h[1:1]/1,,,,1,,,,2,,,,2,,,,3/5h[1:1],,,,3,,,,4,,,,4,,,,
8/1h[1:1],,,,8,,,,7,,,,7,,,,6,,5,4,3,2,1,8h[2:1],,,,Ch[32:1],,
,,,2h[4:1],,,3h[4:1],,,4h[4:1]/5-3-7[2:1],,,,,,,,,,7h[4:1],,,6h[4:1],,,5h[4:1]/3-5-1[2:1],,,,,,4,5,6,7,2h[4:1],,,3h[4:1],,,4h[4:1]/5-2-7[2:1],,,,,,,,4,,8h[4:1]/1h[4:1],,,7h[4:1],,,6h[4:1],,,5h[4:1],,,4-8[4:1],,4,,7,,,4,5h[4:1],,,,1,,,4,3p7[4:1],,,,8,,,5,6h[4:1],,,,2,,,5,4-1[4:1],,,,7,,,5,6h[4:1],,,1,,4,,3,,8z4[4:4],,8h[1:1],,,,,,,,,,,,,,,3>6<3[4:7],,5h[2:3],,,,,,,,,,,,,,5-1-5[4:3],,3h[1:1],,,,,,,,1h[2:1],,,,2h[4:1],,6<3>6[4:7],,4h[2:3],,,,,,,,,,,,,,4p8>3[1:1],,6h[1:1],,,,,,,,,,,,,,4,,1/6h[4:3],,2-4[8:1],,2,,1,,8/3h[4:3],,7-5[8:1],,7,,8,,4/6h[4:3],,3-1[8:1],,3,,4,,8-5[8:1]/5,,,,1-4[8:1]/4,,,,3/5h[4:3],,2>4[8:1],,2,,1,,6/4h[4:3],,7<5[8:1],,7,,8,,3/4,,1/2,,7/8,,5/6,,4-7-5[8:2]/3h[4:1],,,,C,
,,,1h[4:1],,,,3h[4:1]/4h[4:1],,,5,6,5,6-2[8:1],,6/5,,,,3h[4:1],,,,1h[4:1]/8h[8:3],,,2,,5,3-7[8:1],,4/3,,8-5[8:1]/1-4[8:1],,1/8,,,,6h[4:1]/5h[4:1],,,4,3,4,3v8[8:1],,3-6[8:1]/4,,
,,1,7,3,6,4,5v7[8:1],,5,2,3,4-2[8:1]*-6[8:1],,4,,1,1,8h[4:1]/2h[4:1],,,,6h[4:1]/5h[4:1],,,4,3,4,3-7[8:1],,3,8,7,6,5,5,4,4qq1[2:1],6/3,,8-5[8:1],,,,2,,3h[8:1]/4h[8:1],,5v2[8:1],6,5/3,,4,4,7h[8:1],,5/3,5/2,,1v4[8:1],8v5[8:1],1>4[8:1],8<5[8:1],1-5[8:1],8<1[2:1],,,,,,3,,8,,4>6[8:3],8,4,,B5,Cf,,,
1>4[4:1]/8h[4:1],,,5,6h[4:1],,,3,7-1-5[8:2],4-2[8:1],7,4,,,,,8<5[4:1]/1h[4:1],,,3,4h[4:1],,,5,2-8-4[8:2],5-7[8:1],2,5,,,,,8-6-4[4:1]/3h[4:1],,,2,1h[4:1],,,6,5-1[4:1],4-2-5-1[8:3],5,4,,6h[4:1],,Ch[2:1],,,,,,8,3/4,1,5/6,2-5-8[4:1],4/7,2/5,,A8f,,,1q5[4:1]/5,,,6,6h[4:1],,4z8[4:1],5,4/7,6,,7>2[4:1],2,,,,1v4[4:1]/5,,,7,7h[4:1],,2-4[8:1],4-1[8:1],2/1-5[8:1],5-8-4[4:1],,A7,A6f,,
{16}8,7,6,5,4b-6[8:1]/3b,,,2h[8:1],,,2,,1h[8:1]/6h[8:1],,,7h[8:1]/2h[8:1],,,7/2,,8/3,,5h[8:1]/6h[8:1],,,,3v6[8:1]/7v2[8:1],,2/6,,3bx/7bx<1[16:10],,,,7bx/Cf,,,,,,,,,,,,,,1-3[8:1],,8-4[8:1],,1-5b[8:1],,8-6b[8:1],,,,,,,,,,3>6b[8:4],,,,
{48}7bx,E8,B8,B1,E2f,,
{16},,5,,,,5h[4:1],,,,2,,5,,7/1,,2/6,,5-8[8:1]/3,,,,5/1-5[8:1],,,,1pp4[2:1]/8,,7,,6h[4:1],,,,,,,,8h[2:1],,,,,,,,1-6[8:1],,,,,,,,1-4[8:1],,,,6<3b[2:1],,,,6b/3h[4:1],,,,,,,,4h[4:1],,,,8,,4,,2/8,,7/3,,6/4-1[8:1],,,,4/8-4[8:1],,7,,8<2[2:1],,3,,8b/4h[2:1],,,,,,,,,,,,1/5,,,,1-3[8:1],,1-7[8:1],,1-4[8:1],,1-6[8:1],,,,,,2<5[2:1],3,4,5,6bx/2b,,,,,,,,3h[8:1],,,,7-2-7[4:1]/3-6-3[4:1],,8/4,,7/3,,,,,,,,1-5[8:1],,2,,8-4[8:1],,7,,8b-4-6-8[2:1]*-4-2-8[2:1]/1b,,,,,,,,,,,,,,,,8-5[8:1]*-6[8:1],,,,,,,,8-3[8:1]*-2[8:1],,,,6<3b[2:1],,,,3h[4:1]x,,,,,,,,4h[8:1],,,,8-5-8[4:1]/4-1-4[4:1],,5/1,,8/4,,,,,,,,1-5[8:1]/8-4[8:1],,7/2,,1>1>3[1:1]/8<8<6[1:1],,,,1b/8b,,,,,,,,,,,,,,,,,,,,,,,,,,,,1,,2,,3qq7[2:1]/5h[8:1],,,,5,,5,,6h[8:1],,,,6,,6,,1,,5-2[8:1],,5-8[8:1],,,,,,,,4,,2/7,,3-6[4:1]*-6[4:1]/6,,,,8,,8,,7,,7,,6pp2[2:1]/6-3[4:1],,,,,,,,,,,,,,,,1,,6/4,,3s7s3[2:1],,,,8,,7,,8,,,,E5,,C,,3,,4,,4pp6[4:1]/3h[4:1],,,,,,,,,,1,,6pp5b[4:1]/4,,,,1,,2,,3,,4qq5<5b[16:10],,6b,,6h[8:5]b,,,,,,,,,,,,,,4,5,4,5,4>1[8:1],,3,,4/8<5<5[1:1],,7,,8,,3,,3h[2:1],,,,,,,,,,,,,,1,,5-7-1[4:1],,C,,5/1-3-5[4:1],,,,5<1[4:1],,C,,1>1[2:1]b,,2x,,2h[4:1]x,,,,,,,,,,4/6,,3/7,,2-5[8:1]/8-5[8:1],,1,,8b/2b,,,,,,1/7,,2/6,,5h[8:1]/3h[8:1],,,,1h[8:1]b/2h[8:1]b,,,,8/3,,7/4,,5/6,,,,7/8,,3-1-7-3-5-7-3[8:17]/4-6-1-4[8:9],,1/2,,3b/4b,,,,,,,,,,,,,,,,,,,,,,,,,,,,,,,,,,7x-2[4:6]*-2[4:6],,,,A1,,,,B4,,,,B1,,,,E6,,,,E8,,,,A6,,,,C,,,,7-4[4:6]*-4[4:6]/A8,,,,B7,,,,A1,,,,C,,,,A2,,,,B3,,,,D3,,,,D4,,,,7-3[4:6]*-3[4:6]/E1,,,,{160},E3,{32},,,,,,,,E5,,,,,,,,E7,,,,,,,,,B1,,,,,,,,B4,,,,,,,,,B6,,,,,,,,,C,,,,,,,,,,,,,E5,
