&title=九尾狐夜行
&artist=OSTER project
&first=-0.264
&des_1=狐狸,也会哭泣吗?
&des_2=狐狸,也会哭泣吗?
&des_3=狐狸,也会哭泣吗?
&des_4=狐狸,也会哭泣吗?
&des_5=狐狸,也会哭泣吗?
&lv_5=14
&des_6=狐狸,也会哭泣吗?
&des_7=狐狸,也会哭泣吗?
&des=狐狸,也会哭泣吗?
&inote_5=(145)
{16},,,,
,,,,
,,,,
3,4,3,4,
{16}2,,7,7-4[8:1],
,6/1-5[48:5],,7/3,
,1,,6qq7[16:13],
,2qq3[16:11],,,
{16},,,,
,,,,
,,,,
,,,,
{16}3pp2[2:1]/7pp6[2:1],,,,
,,,,
,,,,
,,,,
||s9/8
{16}2h[8:1],,4,3,,3,
,3,,4,2h[8:1],,
4,3,5,4,6,5,
{16}7h[8:1],,5,6,,6,
,6,,5,7h[8:1],,
5,6,4,5,3,4,
{16}1h[8:1],,4,2,,2/3,
,2/3,,3,1,4,
4,2,5,3,6,4,
{16}8h[8:1],,5,7,,7/6,
,7/6,,6,8,5,
{24}4,3,2,
8,7,6,
4,3,2,
||s4/4
{16}5b/1b,,6b,4b,
,3b/7b,,6b-1[8:1]/2b-5[8:1],
,,2h[24:1]/6h[24:1],,
,,,,
||s3/4
{4}8bpp6[8:5],,,
{8}4h[8:3],,,6h[8:3],,,
{4}8pp5[8:5],,,
{8}6h[8:3],,,4h[8:3],,,
{4}1qq4[8:5],,,
{8}3h[8:3],,,5h[8:3],,,
{4}1qq3[16:9],,,
{8}4h[4:1],,3h[4:1],,2h[4:1],,
{16}1b>7[16:6],,,4bq8[16:3],
,,,,
,,,,
{16}1h[8:1],,5,,
2h[8:1],,6,,
3h[8:1],,7,,
{16}8<2[16:6]/5p1[16:6],,,,
,,,,
,,,,
{16}8h[8:1],,4,,
7h[8:1],,3,,
6h[8:1],,2,,
{16}5h[8:1],,3,,
6h[8:1],,4,7,
5h[8:1],,6,3,
{16}4h[8:1],,2,5,
3h[8:1],,6,6,
4,5,3,,
||s9/8
{16}7b/2b,,3,4h[2:1],,5,
,2,,7,7,,
1,1,5,2,4,4,
{16}3,,6,5h[2:1],,4,
,7,,2,2,,
8,8,4,7,5,5,
{16}6,,3,4-8[8:1],,5,
,2,,1,1,7,
5,5,6,2,4,4,
{16}3,,5h[8:1]/6h[8:1],,,4h[8:1]/3h[8:1],
,,5h[8:1]/7h[8:1],,,2h[8:1]/4h[8:1],
,,1,8,8,8,
{16}1b,,3,4-8[8:1],,5,
,2,,1,1,7,
5,5,6,2,4,4,
{16}3,,6,5-1[8:1],,4,
,7,,8,8,2,
4,4,3,7,5,5,
{16}6h[8:1],,3,4-8[8:1],,5b/6b,
,4b/3b,,2,2,7,{24}1,2,3,5,6,7,1,2,3,
||s4/4
{16}4h[8:7]/8b,,,,
,,,,
,,,3,
3-6[8:1],,5,,
||s9/8
{16}7b/3b,,8,8,,2,
2-4[8:1],,3/5,,7,,
1-5[8:1],,4/6,,7,,
{16}8-6[32:3],,5,5,,3,
3-1[8:1],,2/8,,6,,
4b-8[8:1],,1/7,,6,,
{16}5b-7[32:3],,8,8,,1,
1b-5[8:1],,2/4,,6,,
8b-4[8:1],,7/5,,3,,
{16}1b-3[32:3],,4,4,,6,
6h[8:1],,5,7,1,8,
2,2,8,1,7,5,
{16}6b^1[32:3],,3,3,,5,
5-2[8:1],,3/1,,7,,
6-1[8:1],,2/8,,3,,
{16}3^8[32:3],,6,6,,4,
4-7[8:1],,6/8,,1,,
2b,,5,3,6,4,
{16}7b^4[32:3],,8,8,,2,
2b,,3/1,,4/8,,
5/7b,,4,6,3,5,
{16}1b,,2/8b,2b/8,,3/7b,
3b/7,,4b-8[8:1]/6,,3b/5,,
2b/4,,,1,,,
{16}6bqq7[16:7]/2h[8:3],,,,,,
,,,,,,
2b,,,,,,
{16}3bpp2[16:7]/7h[8:3],,,,,,
,,,,,,
7,,8,,1,,
{16}2,,3,4,,4,
2h[4:1],,3,,5,,
6h[4:1],,3,,5,,
{16}7,,6,5,,5,
8,,1/7,,2/6,,
3/5,,,3>5[16:9]/5<3[16:9],,,
{16}4b,,,,,,
,,,,,,
4h[8:9],,,,,,
{16}3b,,,
5b,,,
2b,,,
6b,,,
{32}1b,2,3,4>6[16:10],5,6<4[16:9],7,8h[64:9],{16},,
{16}5b,,,,,,
,,,,,,
5/6,,4/5,,3/4,,
{16}2b/8,2/8b,,5/7b,,2/4b,
2b/4,,8b/6,,1bV35[8:1]/5bV71[8:1],,
,,1b/5b,,,,
{16}4b/8b^5[32:3],,3,8,,2,
2-5[8:1],,1/5-3[48:5],,2/8V62[32:7],,
7b,,8,,3,,
{16}1b^4[32:3],,6,1,,7,
7-4[8:1],,8/4-6[48:5],,7/1V37[32:7],,
2b,,1,,6,,
{16}5b^8[32:3],,4,5,,3,
3b-8[8:1],,4/8-2[48:5],,3/5V73[32:7],,
6b,,5,,2,,
{16}1b^4[32:3],,8,1,,7,
7h[8:1],,5,6,3,4,
2,2,5,3,7,5,
{16}8b^5[32:3],,1,8,,2,
2-6[8:1],,3/6-4[48:5],,2/1V73[32:7],,
8b,,1,,4,,
{16}2b^5[32:3],,1,2,,8,
8-4[8:1],,7/4-6[48:5],,8/1V37[32:7],,
2b,,1,,6,,
{16}8b^5[32:3],,1,8,,2,
2b-5[8:1],,3/8-4[48:5],,2/6,,
8b,,1^4[8:1]*^6[8:1],,4qq5[12:5]/6pp2[12:5],,
{16}1b,,,,,,
,,,,,,
{24}4,3,2,8,7,6,1h[8:1],,,
{16}5h[16:3],,6-3[8:1],6,,7,
7,,8,,1/8,,
{24}2,3,4,6,7,8,5h[8:1],,,
{16}1,5,8,5,7,5,
6,4,5,3,5,2,
6,1,8,3,7,2,
{16}6b-1[8:1],,7/5,,4,,
3b-8[8:1],,5/2,,3/6,,
7h[8:1],,{24}5,4,3,1,8,7,
{16}2b/6b,,3,4,2,5,
1-5[8:1],,2/4,,8,,
7-4[8:1],,8/4,,1,,
{16}2-5[8:1],,1/5,,8,,
7,,4/6,,3/5,,
2/4,,1,7,2,6,
{16}3^8[32:3],,5,3,,7,
7-4[8:1],,6/1-5[48:5],,7/2,,
1,,6,6,4,,
{16}2b/8b,2b/8b,,5b/7b,,2b/4b,
2b/4b,,1b/7b,,4b/6b,,
{24}2b,4,1,
7b-3[48:5],5,6,
4bpp2[24:69],3,2qq4[24:67],
{8}1b/7b,,,
,,,
,,,
{8},,,
,,,
,,,
E
