&title=volcanic
&artist=LuzeriA
&first=0
&des=Tachi.mia
&lv_5=14
&inote_5=(191){1},,,
{16}1,2,3,4,2,3,4,5,6-1>3[4:1],,,,4b,,,,
{8}C,
{16}3x,4,2,,6,5,7,,1,2,37,,7-5>4-8[4:1],,E3,,1,2x,3x,,2,3x,4x,,3,4x,5x/7,,7-3[8:1],,E5,,7/8-4[8:1],1,2,,8/7,6,5,,1,2,8,,8/3x,,C,,6-2[8:1],5,7,,6,,A2,,17,,26,,35,,B3,,4,5,3x,,6,5,B7,,3,4,2,,28,,C,,2,1,2,,7,8,B7,,1,8,1,,16,,C,,3,4,B3,,6,5,B6,,1,8,E2,,2x/6,,
{8}2xb/B5/E5f/B4,2x,2xb/B8/E1/B1,
{16}2,3,
{8}4,6xb/B5/E5/B4,6,6xb/B1/E1/B8,C,
7x-3[8:1],68,7b,2,5,
{24}1,2,3,
{8}4x,B7,2v5[8:1],1,2b,8,3,
{24}7,6,5,
{8}4x,C,1-5[8:1],28,1b,7,3,
{24}8,7,6,
{8}5x/4x,B3,8-5[8:1]*-3[8:1],71,8b,C/B6/B2,3x/7x,2x/6x,1x/5x,E8,
2-6[8:1],6x>3[8:1],2,A8,7x,
{16}7x/3x,6x/2x,
{8}5x/1x,E2,7-3[8:1],3x<6[8:1],7,A1,2x,
{16}2x/6x,3x/7x,4x/8x,,B6,,3,4,E3,,6,5,E7,,2x,3x,E4/7,6,
{8}5,8xb/B3/E3f/B2,7,6xb/E1/B1/E2,6x,
{16}1,2,
{8}3,3xb/B6/E7/B7,3x,
{1}Chf[1:2],,,,
{8}3h[4:1],4bh[4:1],,,1h[4:1],8bh[4:1],,,5h[4:1],6bh[4:1],,,3h[4:1],2bh[4:1],,,3,4,7,6,1,2,6,5,8b,
{16}7,8,1,2b,8,1,2xb>3-8<7-5b[4:1],,
{24}A3f,B3f,Cf,B8f,E8f,,
{8},4x,3x,3x,6,53,5,46,4,7,3,5,6,4,4,5,5/4bh[8:1],6,7h[8:1]/5,4,35,5,4,4,3/2bh[4:1],3,1,2,12,8,1/8-4b[8:1],7,78,6,6x,5x/3,2,3,64,7,6,3,3,6,5,2,3,5,5,64,2,53,7,28,2,17,7,26,26,
{16}17,26,
{8}53,26,2b/6b,48,4b/8b,
3,53,3,63,3,73,3,83,3,
{16}3,7,3,,3,6,3,,3,5,3,,
{8}3,6,46,6,36,6,26,6,16,6,
{16}6,2,6,,6,3,6,,6,4,6,,
{8}6,2-4[8:1],2,6-8[8:1],6,3-1[8:1],3,7-5[8:1],7,2,3,3,7,16,6,1,37,3-7[8:1],3,6>4[8:1],6,2-8[8:1],2,7<4[8:1],7,3-8[8:1],3,7,7h[8:1],1,2,
{16}73,2b/6b,
{8}51,3,25,3,26,3,27,3,28,3,
{16}2,7,3,,2,6,3,,2,5,3,,
{8}2,6,74,6,73,6,72,6,71,6,
{16}7,2,6,,7,3,6,,7,4,6,,
{8}7,2-8[8:1],2,6-4[8:1],6,3-1[8:1],3,7-5[8:1],7,
{16}3,2,1,,7,6,5,,1,2,3,,
{8}5w1b[8:1],5,Cf,,4>3-1[8:1],4,8<7-5[8:1],8,2>3-5[8:1],2,6<1[8:1],6,
{24}1<6[8:1],2,3,
{8}4,
{24}5,4,3,
{8}2,3h[4:1],7bh[8:1],
{24},6x/2x,1x/5x,
{8}8x/4x,
{16}2,5,3,,1/6b,,1/6b,,3/8b,,3/8b,,1,,7,4,5,,2,5,3,,17,,17,,26,,
{24}26,3,4,
{16}5,,7,3,8,,1/2b,,1/2b,,8b/7,,8b/7,,6bh[8:1],,
{16}4bh[8:1],,C,E2f,E3,E8,E7,B2f,B3,B8,B7,B2f,Cfh[8:1],,
{24}4x,3xb,2x,
{16}1xb,,7x,4x,6,,2,5,3,,17,,17,,2xb,,7,3,6b,,2xb,5,3,,1,,3/8b,,3/8b,,
{24}8b/3h[8:1],7,6b,
{16}5,,3,7,4,,5/6b,,5/6b,,4b/3,,4b/3,,2bh[8:1],,
{16}8bh[8:1],,C,E6,E7,E4f,E3,B6,B7,B4f,B3,B6,Cfh[8:1],,
{24}1x,2xb,3x,
{16}4xb,,8xb,4x,7,5,6b,2b,4b,,53,,53,,6xb,,3,7,2b,,6xb,1,7,,5,,7/4b,,7/4b,,
{24}4b/7h[8:1],3,2b,
{16}1,,6,4b,5b,,1b/3,,1b/3,,8b/6b,,8b/6b,,3bh[8:1],,5bh[8:1],,B3,B2f,E2,B6,B7f,E8,A3,E3f,E2,A6,E7f,E8,1b,,7-3[8:1],4,6,,7,,1,,1,,52,,52,,1,,5-8b[8:1],3,4,,5,,3,,2,,27,,1xb/6xb,,1xb/6xb,5xb/2xb,4xb/3xb,,6x/8,,6x/8b,,1b,,1b,,6bh[8:1],,2bh[8:1],,5bh[8:1],,3bh[8:1],,Cf,2x,1xb,8,6x,5b,4,1b,8,1b,8,1b,
{48}A6,B6,Cf,B2,A2,,
{16}4,5,4,,6xb,,
{48}A3,B3,Cf,B7,A7,,
{16}5,4,5,,3xb,,
{48}A6,B6,Cf,B2,A2,,
{16}4,5,4,,6xb,,
{48}A3,B3,Cf,B7,A7,,
{16}5,4,5,,3xb,,
{48}A6,B6,Cf,B2,A2,,
{16}4,5,4,,6xb,,
{48}A3,B3,Cf,B7,A7,,
{16}5,4,5,,3xb,,
7,,4,7,5,,Cf,,2,,5,2,4,,E5f,,
{48}A7,B7,Cf,B3,A3,,
{16}6,5,4,,7xb,,
{48}A2,B2,Cf,B6,A6,,
{16}3,4,5,,2xb,,
{48}A7,B7,Cf,B3,A3,,
{16}6,5,4,,7xb,,
{48}A2,B2,Cf,B6,A6,,
{16}3,4,5,,2xb,,
{48}A7,B7,Cf,B3,A3,,
{16}6,5,4,,7xb,,
{48}A2,B2,Cf,B6,A6,,
{16}3,4,5,,2xb,,
7,,4,7,5,,Cf,,2,,5,2,4,,E1f,,
E3,B3,B4,,E1,B1,B2,,E7,B7,B8,,E5,B5,B6,,A2,E3,E4,,A8,E1,E2,,A6,E7,E8,,A4,E5,E6,,A2,D3,A3,,D1,A1,D2,,A7,D8,A8,,D6,A6,D7,,A4,D5,A5,,D3,A3,D4,,
{24}E1,B1,B2,E3,,,E7,B6,B5,E5,,,
{8}18,18,18,18,18,18,18,18,1/8b,1/8b,1/8b,1/8b,1/8b,1/8b,1/8b,1/8b,1b/8,1b/8,1b/8,1b/8,1b/8,1b/8,1b/8,1b/8,1b/8b,1b/8b,1b/8b,1b/8b,1b/8b,1b/8b,1b/8b,1b/8b,
{16}2xb,7xb,2xb,7xb,3xb,6xb,3xb,6xb,2xb,7xb,1xb,8xb,2xb,8xb,1xb,7xb,1xb,
{16}6xb,B6f,3xb,B3f,7xb,B7f,2xb,B2f,8xb,B8f,1xb,B1f,E8,E7,
{32}E6,B2f,B3,B4,B5,B6,B7,B8,B1f,B2,B3,B4,B5,B6,B7,B8f,B1,B2,B3,B4,B5,B6,B7f,B8,B1,B2,B3,B4,B5,B6f,B7,B8,B1,B2,B3,B4,B5f,B6,B7,B8,B1,B2,B3,B4f,B5,B6,B7,B8,B1,B2,B3f,B4,B5,B6,B7,B8,B1,B2f,
{4}Chf[4:1],,,,,8xV64b[2:1],,,,3xV57b[2:1],,,,2xV86b[2:1],,,,1v3b[4:1],1,7v5b[4:1],7,4v2b[4:1],4,8v6b[4:1],8,
{8}3-1[8:1],3,7-5[8:1],7,2>5[8:1],2,6<1[8:1],6,3,4,5,
{16}48,73,26,,78,,26,,Cf/1x,,
2b,,5,3,4,,26,,7b,,4,6,5,,73,,2b,,5,3,4,,26,,7b,,4,6,5,,73,,1b,,5,2,4,,15,,8b,,4,7,5,,84,,1b,,5,2,4,,15,,8b,,4,7,5,,
{8}84,2b,35,7b,64,2b,28,7b,71,3b,46,7b,53,1b,16,8b,38,
{16}2b,,7,4,6b,3,5,,2b,5,3,6,4b,,17,,5xb,2,8,4,6xb,1,7,3,5xb,2,6,8,4xb,5,1,7,3b>8[1:2]/5xbh[1:2],
