&title=《都市传说解体中心》“福来蓟”角色MV
&artist=アオワイファイ&かごめP
&first=0
&des=Cridist_Tist 关注B站Cridist_Tist谢谢喵
&lv_5=12+
&inote_5=(82){4},{16},,,B7/B3,,,,,,B3/B2/B6/B7/B8/B4,{32},,,,,2h/8h,
,,3,5/4p8[32:3],,5,,4,,,,C,,,,7h,,,6,4/5q3[32:3],,4,,5,,,,C,,,,7h[8:1],
,,,B5,,,,2-6[16:1]*-6[32:3],,6,,2x<6>8<6[16:9],,,,,,,,2x,{4},,{16},,{32},E7f/E3f/B2/B6,
,B8f/B4f/E1/E5,,,,1,,,,8x-4[16:1],,,,8,,7,,8,,,,1,
,,,1x-5[16:1],,,,1,,5h,,,,,,8,,4,,5b,,,,1,,5,,4b,,,,7h,
,3h,,1bw5[16:1]*w5[16:1],,,,E8/E3,,B5,,,,,,8,,,,1x-5[16:1],,,,1,,2,,1,,,,8,
,,,8x-4[16:1],,,,8,,4h,,,,,,1,,5,,3b,,,,8,,4,,6b,,,,2h,
,6h,,8bw4b[16:1],,,,E2/E7,,B4,,8b,,,,7h[32:7]/2h[32:7],,,,,,,,6h[32:7]/3h[32:7],,,,,,,,5h[4:1]/4h[4:1],
,,,,,,,,,,,,,,,8,,,,8x-4[16:1],,,,8,,4h,,,,,,3xh/6x-1[16:1],
,3xh,,3xh/8x-5[16:1],,3xh,,6x/3bxh,,3xh,,8x/3bxh,,3xh,,7h[32:7]/3h[32:7],,,,,,,,6h[32:7]/2h[32:7],,,,,,,,5h[4:1]/1h[4:1],
,,,,,,,,,,,,,,,1,,,,1x-5[16:1],,,,1,,5h,,,,,,6xh/3x-8[16:1],
,6xh,,6xh/1x-4[16:1],,6xh,,3x/6bxh,,6xh,,1x/6bxh,,6xh,,2h[16:3],,,{8}5h[32:5],{32},,,,,,,4,
,8s4[32:3],,5,,1,,,,8b,,,,5>1<5>1[8:3],,3h,,7h,,,,,,,,5,,,,1,,,,7h[32:3],
,,,4h[8:1],,,,,{16}5h[32:3]/6h[32:5],{32},,,,,3bh[8:3],,,,7,,,,8,,,,,,7h[16:3],
,3,,,,4,,,,8h[8:1]/1h[8:1],,,,,,,,7/5,,,,6,,,,4/2,,,,3,,,,7b/4,
,,,2b/5,,,,4b/3b>6-1-3-8-6[4:7],,,,6b/5b,,,,Cf,,,,,,,,6,,,,3,,,,2h[4:1],
,,,,,,,,,,,,,,,3,,,,8,,,,6,,,,1,,,,2h[4:1],
,,,,,,,,,,,,,,,1bh/7bh,{16}6b,{32}6b,5b,,5b,,4b,,,,,,,,8bh/2bh,
{16}3b,{32}3b,4b,,4b,,5b,,,,,,,,2h[8:1],,,,B4,,,,7-3b[16:1]*-3[32:3],,3,,7x>3<6<1>3<4[32:19],,,,,,,,7x,
,,,,,,,,,,,,,5bh[16:5],,,,,,,,,,Cf,,,,8,
,,,1x-5[16:1],,,,1,,2,,1,,,,7,,8x,,7x-3[16:1],,6x,,8,,,,,,,,5,
,4,,1b,,,,4,,5,,8b,,,,3h,,7h,,1bw5[16:1]*w5[16:1],,,,E7/B7/E8,,E3/B3/E4,,1bx,,,,7-2[8:1],
,,,2-6[8:1],,,,6b-3[8:1],,4,,3<8[8:1],,,,8,,1,,2,,,,3,,,,5/7h,,6h,
,8/5h,,,,4/2h,,3h,,1/4h,,,,7/6,,5/8,,4bh[32:3]/1h[32:3],,,,3h[32:3]/8bh[32:3],,,,7h[8:1]/2bh[32:3],{64},,,,,B2,{32}C,,,,6h[8:1],
,,,,,3h[16:3],,,,,,,,7h[8:1],,,,,,4h[8:1],,,,,,,,,,,,8/6,
,,,3/1,,,,7/4,,6,,2/5,,3,,4/8h[32:3],,,,3x/7h[32:3],,,,2/6h[8:1],,,,,,,,2,
,,,C,,,,3,,,,C,,,,4,,,,C,,,,5,,,,C,,,,6,
,,,7,,,,8,,,,1,,,,2bx,,2b,,3bx,,3b,,4bx,,,,4-1[0.3659##0.0915]/8b-5b[0.3659##0.0915],,,,Cf,
,,,7-4[16:1]/2v5[16:1],,,,8,,3,,2b/7b,{64},,,,,,6h/2h,B6/B2,{16}Cf,{32},1b-6[16:1]/7bv4[16:1],,,,8,,2,,7b/1b,,,,3h[16:1],
,2h[16:1],,C,,,,7h[16:1],,6h[16:1],,C,,,,7/3,,6/2,,7/3,,,,4/8,,5/1,,2/6,,,,7/B3,
,,,6/B4,,,,7/B5,,7,,7/B6,,,,3/B7,,,,2/B8,,,,3/B1,,3,,3/B2,,,,7/E4,
,7,,7/E5,,,,2/E6,,2,,2/E7,,,,5/E8,,5,,5/E1,,,,4/E2,,4,,4/E3,,,,7bh[64:1]/4bh[64:1],
,,,6bh[64:1]/3bh[64:1],,,,5bh[64:1]/2bh[64:1],,,,4bh[64:1]/3bh[64:1],,,,2bh[4:1],,,7,6,,4,{64},,,,,,,,,,5b/1b,2x/6x,3x/7x,4x/8x,
E
