&title=ザムザ
&artist=25時、ナイトコードで。/ てにをは
&first=0
&des=合作だよ
&lv_5=12+
&inote_5=(121){4},,,,{4}
4-1[4:1],,5-8[4:1],,2-6[4:1],,8v1[4:1],,
3-6[4:1],,7-2[4:1],,4s8[8:3],,{8}1h[16:1],1h[16:1],,2,
{8}2-4[12:1],,4,,6-4[12:1],,4,,
{16}3h[16:3],,,5h[16:3],,,4,,6h[16:3],,,5h[16:3],,,7,,
{8}7-5[12:1],,5,,3-5[12:1],,5,,
{16}6h[16:3],,,4h[16:3],,,5,,3h[16:3],,,4h[16:3],,,2,,
{8}2-4[12:1],,4,,6-2[8:1],,4,,
{16}3h[16:3],,,5h[16:3],,,4,,6h[16:3],,,5h[16:3],,,7,,
{8}7-5[12:1],,5,,3-7[8:1],,5,,
6h[8:1]/5h[8:1],,3h[8:1]/4h[8:1],,8<5[8:1]/1>4[8:1],,,,
{16}6b/3b,,2,2h[8:1],,4,3,,45,,6,6h[8:1],,5,,5,
7,3,7,1,,2h[8:1]/8,,{32}6,5,4,,{16},3,4,2h[8:1],,5,,
{16}36,,7,7h[8:1],,5,6,,54,,3,3h[8:1],,4,,4,
2h[8:1],,6,5,,7h[8:1],,{32}3,4,5,,{16},6,5b/7b,,,,,
1,,1,,24,,4,,3,3,4,2h[8:1],,5,4,5,
4,,6,6h[8:1],,5,,3,3h[8:1],,4,3,,3,6,5,
8,,8,,75,,5,,6,6,5,7h[8:1],,4,5,4,
5,,2,2h[8:1],,4,,7,7h[8:1],,5,6,3,4,4,4,
1-4[8:1],,2,,1/5-1[8:1],,6,,8,,7<4[8:1],7,,3,,2,
2-6[8:1],,5,5,,7,,8>3[8:1],8,,,1,,,,,
6<1[8:1],,7,,6/3-7[8:1],,4,,8,,1-5[8:1],1,,2,,3,
3,,24,,5/7h[8:1],,{32}5,4,3,,{16}6h[8:1],,2,2,5b,1b,8,,
6h[16:1],4,,2h[16:1],4,,6h[16:1],4,3,4h[8:1],,5,4h[8:1],,3,4,
3h[16:1],5,,7h[16:1],5,,3h[16:1],5,,7,68,,2,13,,,
3h[16:1],5,,7h[16:1],5,,3h[16:1],5,6,5h[8:1],,4,5h[8:1],,6,5,
7,48,,,2,15,,,2<7[8:1]/7,45,,,2b/6b>3[16:13],,,,
{16}1h[16:1],,,1h[16:1],,,1h[16:1],,,1h[16:1],,,1h[16:1],,,,
{16}26,,34,43,,12,,{32}5/2,63,{16}7-4[12:1]/4-8[12:1],,8,,4V61[16:3]/7,,,
1b,,,2,,3,,4pp3[16:4],4,,,1,,8,,7,,
2-4[12:1]/6,1,,5-1[12:1],2,,8qq3[8:2],5,,,8,,4,,5>8[24:4],5,,,7,,6,,5V74[8:2],5,,,4-8[8:1],,8,,3,,
1-5[8:1],,3-1[16:1]/7,,1,3,,6h[16:3],,,1-5[16:2],,5V38[16:3]/2,,
6,6,,,7,,6,,5qq6[16:4],5,,,8,,1,,2,,
7-5[12:1]/3,8,,4-8[12:1],7,,1pp5[16:4],4,,1,,,7h[16:1],,,7h[16:1],
4,,3,4,2q6[8:1],,1,,2/6>8[16:4],,8,8,,,7,,6,,2/5,,3V52[16:3]/7V16[16:3],,46,37,,,,,,,,
2b-6[16:5]/6b,,,,,,,,,5-8[4:1],,,,,,,,4-1[4:1],,,,,,,,7-3[4:1],,,,,,,,2qq8[4:1],,,,,,,,6qq5[4:1],,,,,,,,1p8[8:2],,,,,,,,,,5,,3,2/4b,,6,
5b-1[8:1]/7<4[8:1],,,,,,,,8>3[8:1]/5b-1[8:1],,,,,,,,8b-4[8:1]/5b-1[8:1],,,,5bw1[8:1]/8b,,,,5b,,,,2,4,3,,
45,,6,5,7p3[8:1],,8,,7/3<1[16:4],,1,1,,,2,,3,,6/4,,5/2,,4/7,,2V83[8:1]/6V47[8:1],,35,26,,,,,
4-1[8:1]/8,,,,7,,,,6/1-4[8:1],,,,5,,,,4-1[8:1]/6,,,,7s3[16:3],,,,,,,,,,
1b/5bpp1[8:3],,7b/2bv4[8:2],,,,,,,,,,3,3h[8:1],,4,,4,
15,1h[8:1],,7,7h[8:1],,{32}2,3,4,,{16}8-4[8:1],,7,,6<1[8:1],,5,,
{16}4-7[8:1]*-8[8:1],,3,3,,,,,54,,6,6h[8:1],,5,,5,
84,8h[8:1],,2,2h[8:1],,4,3,5h[8:1],,3,4/2,,5,46,,
7b/3b,7h[8:1],,3,3h[8:1],,5,4,37,,6,6h[8:1],,5,,5,
84,8h[8:1],,2,2h[8:1],,{32}7,6,5,,{16}1-5[8:1],,2,,3>8[8:1],,4,,
{16}5-2[8:1]*-1[8:1],,6,6,,,,,54,,3,3h[8:1],,4,,4,
15,1h[8:1],,7,7h[8:1],,5,6,4h[8:1],,6,5/7,,24,,54,36,,,
