&title=Panopticon
&artist=R-906
&first=0.005
&des=我
&lv_5=13+
&inote_5=(174)
{8},,,,,,,,3h[2:3]/6,,7,,,6,7,,,6,7,,,{16}6,5,{8}7,,
6h[2:3]/3,,2,,,3,2,,,3,2,,,{16}3,4,{8}2,,
3h[8:5]/6,,7,,,6,7,3h[8:5],,6,7,,{16},,7,5,{8}6,,
6h[8:5]/3,,2,,,3,2,6h[8:5],,3,2,,{16}3,4,2,4,{8}3w7[8:1],,,,
2q6[8:1],2,8,8h[4:1],,3,1<7[8:1]*>5[4:1],7<5[8:1]*<5[8:1],,,
{16},,3,,{8}53,,
2q6[8:1],2,7<4[8:1],7,1,1h[4:1],,6,8>2[8:1]*<4[4:1],2>4[8:1]*>4[8:1],,,
{16},,3,3,{8}5bw1[8:1],,,,
7p3[8:1],7,1,1h[4:1],,6,8-2[8:1]*V64[4:1],2-4[8:1]*-4[8:1],,,
{16},,5,5,{8}3,,3-6[8:1],7-2[8:1],3,7,5,48,37,26,,,1h[1:1]/5h[1:1],,,,,,,,,
4w8[8:1],,,,,53,2,1,{16}6,5,,5,6,,3h[4:1]/8h[4:1],,,,
{8}64,7,7,{16}3,4,,4,3,,8,1,8,1,
{8}72,6,6,{16}3,4,,4,3,,6,5,{8}6,71,6,6,{16}2,1,,1,3,,6,5,4,3,{8}
2b/7b,8,8,{16}3,4,2,4,1,,7,7,8,,{8}35,2,18,{16}6,5,7,5,8,,4,5,3,6,
{8}27,1,1,{16}6,5,7,5,8,,2,2,{8}1,64,7,81,{16}5,4,6,4,7,,1-5[8:1],2,3,4,{8}
5b/1b,,47,{16}6,5,6,5,6,,7/1-5[8:1],2,3,,{8}1b/8b,7,7,{16}3,4,3,4,3,,8,1,8,1,
{8}7b/2b,6,6,{16}3,4,3,4,3,,7-4[8:1],8,6,8,{8}7b,2,2,{16}3,4,3,4,3,,7,8,1,2,
{8}3b/6b,,52,{16}3,4,2,4,3,,1-5[8:1]/8,7,6,,{8}1b/8b,7,7,{16}3,4,2,4,3,,8,1,8,1,
{8}7b/2b,3,3,{16}6,5,7,5,6,,1,8,{8}27,3,7,1<5[8:1],5>1[8:1],1b,,
{32}8,7,6,5,4,3,2,1,
{8}8b/4h[8:3],,3,2,,2>5[8:1],1,2,{24}6,7,8,{8}1h[8:3],4,5,,
{16}3,4,2,4,1,,{24}5b,6,7,{8}8h[8:3],4h[8:1],,,2>5[8:1],1,2,
7-3[8:1],3>8[8:1],2h[8:1],,,4,{16}6,5,7,5,{24}8b,1,2,{8}3h[8:3],4h[8:1],,,7<4[8:1],8,7,
{24}3,2,1,{8}8h[8:3],5,4,,{16}6,5,7,5,8,,{24}4b,3,2,{8}1h[8:3],5h[8:1],,,
7<4[8:1],8,7,2-6[8:1],6<1[8:1],5h[8:1],,,5,{16}3,4,2,4,{24}1b,8,7,
{8}6h[8:3],5h[8:1],,,2>5[8:1],1,2,
{24}6,7,8,{8}1h[8:3],5,4,3,2,{16}1,5,1,5,{24}2b/6b,37,48,{8}1h[8:3]/5h[8:3],
,,,7-4[8:1],8,7,
2-6[8:1],1-5[8:1],2,1,,3,{16}5,4,5,4,{24}5,6,7,{8}8h[8:13],
,,2-6[8:1],,,,{24}4,3,2,{8}1h[8:5],,,,,,,
{16}4,5,4,5,4,5,4,5,3,5,4,5,4,5,4,5,
3,6,4,5,2,7,3,6,
1h[128:1],8h[128:1],2h[128:1],7h[128:1],3h[128:1],6h[128:1],4h[128:1],5h[128:1],
{8}3h[4:1]/6h[4:1],,,36,,,,36,3h[4:1]/6h[4:1],,,18,1-5[8:1]/8-4[8:1],27,1b/8b,,
3-8[8:1]/6,,3h[8:1],,6-1[8:1]/3,,6h[8:1],,3h[4:2],5,5,5,5,{16}2,6,2,6,2,6,
{16}2b-5[8:1],,,6,{8}6,7,7<3[8:1],8/5>3[8:1],
74,,2V48[4:1],71,6,,6V84[4:1],35,2,,2-5[8:1],1,2,7-4[8:1],8V25[4:1],7,8,,7,48,37,26,
{32}1,8,7,6,5,4,3,2,{8}15,,1-5[8:1]/7,2,1pp7[4:1],{16}3,3,{8},,4,
2-6[8:1],6-2[8:1],2,8,7q3[8:1],3>3[8:13],7,4,4h[8:1],,,2h[4:1],,,,8h[4:1],,,,6h[4:1],,
,{16}7,3,7,3,7,3,
{16}7b-4[8:1],,,3,{8}3,2,5/2>4[8:1],1/4<6[8:1],
25,,7V51[4:1],28,3,,3V15[4:1],64,7,,7-4[8:1],8,7,2-5[8:1],1V74[4:1],2,1,,2,51,62,73,
{32}8,1,2,3,4,5,6,7,{8}84,,8-4[8:1]/2,7,8qq2[4:1],{16}6,6,{8},5>5[2:1],,3h[8:3],,,,,{16}8,1,2,3,
{32}2,1,8,7,6,5,4,3,{16}2b-5[8:1],,6,6,{8}2,7,4/7-5[8:1],8/5-3[8:1],
74,,2V48[4:1],71,62,,6V84[4:1],35,62,,2>5[8:1],1,8,7>2[8:1],6V48[4:1],,,3,2,51,62,73,
{32}8,1,2,3,4,5,6,7,{8}8b/4b,,8-4[8:1]/2,7,8qq2[4:1]/6,{16}5,5,{8},,6,
7<4[8:1],8/4-8[8:1],,1,2-6[8:1],
6<6[4:7],2,5,5h[4:1],,,7h[4:1],,,,1h[4:1],,,,3h[8:1],,,4,
{32}7,6,5,4,3,2,1,8,{16}7b-4[8:1],,3,3,{8}7,2,5/2-4[8:1],1/4-6[8:1],
25,,7V51[4:1],28,37,,3V15[4:1],64,37,,7<4[8:1],8
,1,2<7[8:1],3V51[4:1],,,6,7,48,37,26,
{32}1,8,7,6,5,4,3,2,{8}1b/5b,,
{16}7b>2[8:1],,1,,7<4[8:1],,5,5,7-2[8:1],,2-5[8:1],,,,,,{16}1b<6[8:1],,7,,1>4
[8:1],,5,5,1-5[8:1],,5-1[8:1],,1<1[2:3],,
{8},
,,,,,,,,,,,,,3,3,3,
46,8,57,8,53,1,42,1-4[8:1],1-6[8:1],1-5[8:1],,,,87,87,,
53,1,42,1,46,8,57,8-5[8:1],8-3[8:1],8-4[8:1],,,,1b/2b,1b/2b,,
54,{16}3,4,3,,6,5,6,,3,4,2,,6,5,{8}7-3[8:1],8-4[8:1],7,8,,1b/2b,1b/2b,,
45,{16}6,5,6,,3,4,3,,6,5,7,,3,4,{8}2-6[8:1],1-5[8:1],2,1,
3-7[8:1]*>4[2:9],,3,,3h[4:17],
