&title=Beyond the Moon
&artist=輝夜月
&first=0
&des=XXX
&lv_5=13+
&inote_5=(105)
{4},{1},{4},,,{8},3xqq5[8:5]/8xpp5[8:5],
{1},{4},,,{8}5x/6x-3[8:1],
5x/6x,1x,B1,2x-7[8:1],2x/1x,6x,B6,
3x/4x,5,2x/4x-1[8:1],3-7[8:1],4,3,{4}5b,
{8}6x/8x>4[8:1]*<4[8:1],C,{4}8bx,{8}3x-7[8:1]/1x-5[8:1],5x/6x,{4}3bx/1bx,
{8}2x-4[8:1],6-8[8:1],2x,6,5w1[8:1],4/6,{4}5b,
{32}4x,5x,4x,5x,4x,5x,4x,5x,4x,5x,4x,5x,4x,5x,4x,5x,(160)4x,3x,2x,1x,8x,7x,6x,5x,{4}4x/8bx,
(231)2x-4[8:1],6x-8[8:1],1x-5[8:1],7x-3[8:1],
4x-1[8:1],6x-3[8:1],2x-7[8:1],5x-8[8:1],
2x-6[8:1],4x-8[8:1],1x>4[8:1],5x<8[8:1],
3x-1[8:1],7x-4[8:1],{2}5x-1[8:1]*-2[8:1],
{4}7x-5[8:1],1x-3[8:1],8x-4[8:1],2x-6[8:1],
5x-8[8:1],3x-6[8:1],7x-2[8:1],4x-1[8:1],
6x-2[8:1],5x-1[8:1],8x<5[8:1],4x>1[8:1],
6x-8[8:1],2x-5[8:1],{2}4x-1[8:1]*-7[8:1],
{4}2x-4[8:1],2x/8x-6[8:1],8x/2x-6[8:1],2x/8x-4[8:1],
8x/1x-3[8:1],1x/7x-5[8:1],7x/8x-4[8:1],8bx,
6h[4:1],B2/B3,5h[4:1],B1/B2,
4h[4:1],B8/B1,3h[4:1],B7/B8,
{16}1x,6x,1x,6x,1x,6x,1x,6x,1x,6x,1x,6x,1x,6x,1x,6x,
{4}1x,4x/3x,6xh[4:1],5xh[4:1],
{16}4x,3x,2x,1x,8x,7x,6x,5x,4x,3x,2x,1x,8x,7x,6x,5x,
{4}4x/3x,2x-5[8:1]/1x-6[8:1],{2}2bx/1bx,
{4}2h[4:1],B6/B5,1h[4:1],B5/B4,
8h[4:1],B4/B3,7h[4:1],B3/B2,
{16}1x,4x,1x,4x,1x,4x,1x,4x,1x,4x,1x,4x,1x,4x,1x,4x,
{4}1x,6x/5x,{8},Cf/B7/B3/B5/B1,{4},7x-4[8:1],
7x/8x-3[8:1],7x/8x,1x/8x,
2x-5[8:1],2x/1x-6[8:1],1x/2x,1x/8x,
7x-3[8:1],7x/5x-1[8:1],5x/6x,7x/8x,
2x-6[8:1],2x/4x-8[8:1],4x/3x,2x/1x,
6x/5xh[4:1],6x,7x/8xh[4:1],7x,
3x/4xh[4:1],3x,2x/1xh[#0.2597427],(270)2x,
(135)4x/5x,2x-5[8:1]/7x-4[8:1],{2}7b/2b,
{8}2>5[8:1],2,1,8,7,7/8,{4}D8/D2/B8/B7/B2/B1/D1/D7/D3/B6/Cf/B3/E7/E8/E1/E2/E3,
{8}5<8[8:1],5,4,3,2,2/1,{4}Cf/B6/B7/B8/B1/B2/B3/D7/D8/D1/D2/D3/E1/E2/E3/E7/E8,
{8}2pp4[8:1],8<4[8:1],2,8,1,1/8,{4}Cf/B8/B7/B6/B5/B4/B3/B2/B1/D1/D8/D7/D6/D5/D4/D3/D2/E1/E2/E3/E4/E5/E6/E7/E8,
6/2v4[8:1],{8}7v1<5[4:1],6,{2}7/5w1[8:1],
{8}7-3[8:1],7,8,1,2/4,1/5,{4}C/A1f/B3/B2/B1/B8/B7/A3/A7/A8/A2/E1/E2/E3/E8,
{8}4-8[8:1],4,5,6,7/1,2/8,{4}A8f/A7/A6/A1/A2/B2/B1/B8/B7/B6/C/E1/E2/E7/E8,
{8}1p4[8:1],7<4[8:1],1,7,8,7/1,{4}B8/B7/B6/B5/B4/B3/B2/B1/A8/A7/A6/A5/A4/A3/A2/A1/Cf/E1/E2/E3/E4/E5/E6/E7/E8,
{8}3/6,5/4,{16}5,4,,4,{4}6-1[8:1],{8}6/5,5,
{4}3>8[8:1],{8}3/4,4,{4}6<1[8:1],6/5,
3-5[8:1],3/7-3[8:1],7/4V28[8:1],4/7q5[4:1],
5<5[2:1],1,5<7-1[4:1],1V35b[4:1],
{2}5b,{8}7/8,7,8/1,8,
{4}1/2h[4:1],{8}3,3,{4}1h[4:1],8h[4:1],
6p7[4:1],7<1[4:1],1-5[8:1],8,
7h[4:1],{8}6,6,{4}8h[4:1],4w8[8:1],
,2-4[8:1],5-7[8:1],1,
(115)3h[#9.351639],(110)2,(105)1,(100)8,
(85)7,(80)6,(75)5,(70)4,
(105){1}2bq6>2b[4:5],
,{8}3-1[8:1],
4,{4}3/5,{8}7-4[8:1],6,{4}7/8,
{8}1-5[8:1],2,8-4[8:1],7,3-7[8:1]*-6[8:1],2,{4}3b,
{8}8bx/1bx-5[8:1],2/7-3[8:1],1/5,7,2-6[8:1],1b/8b-4[8:1],2b/7b,8,
1>4[8:1],8/7,1b/6-2[8:1],5-8[8:1],6/7,5bx,1b,1bx,
2bxq6[8:1]/4bxv1[8:1],3,{4}4/2,{8}7-3[8:1]/8v5[8:1],6bx,{4}7b/8b,
{8}1/2-6[8:1],5/4<7[8:1],2b/8>3[8:1],4x-8[8:1],8b,4,{4}2b,
{8}1b/7b-5[8:1],8,1/7,C,8/2-4[8:1],1b,2b/8b,C,
1/7h[8:1],8,1b/7b-5[8:1],8,7/1-3[8:1],Cf,7b/1b,8b,
2b/1bv4[8:1],4/3-7[8:1],1,3,5-8>1-4<5[4:1],4b/8b,{4}5bx/A1f,
{8}2v3[8:1],6v7[8:1],2bV48b[8:1],6,2b,7,{4}8b/1b,
(110)6>4[100:23],(120)4>2[400:89],(135)2<7[400:87],(155)7<4[4:1],
4>8[400:97],(160)8<4[4:1],4-8[8:1],(165)2b,
(135){8}3-1[8:1],4-6[8:1],3,4,8w4[8:1],7/1,{4}8b,
{8}6-8[8:1],5-3[8:1],6,5,1w5[8:1],2/8,{4}1b,
{8}8/7,7,3/4,3,5-1[8:1]/2v4[8:1],2/5,{4}5b/2b,
{2}8x<4[8:1]/4xv6[8:1],{4}8v5b[8:1]/2v5b[8:1],2b/8b,
{8}7/3-7[8:1],6/4,3/7,8,2-5[8:1]/1-5[8:1],3,{4}1b/2b,
{8}2/6-2[8:1],3/5,6/2,1,8-4[8:1]/7-4[8:1],6,{4}7b/8b,
{8}7/3,4/6,5pp5[4:1]*qq5[4:1],4/6,{2}5w1b[8:1],
{4}3V58[16:3],1-4-8-5b[4:1],,2b,
(205)3,3,3,{16}4,5,4,5,
(208){8}2-5[8:1],2,1-6[8:1],1,2,2,{16}8,1,8,1,
{8}7-4[8:1],7,8-3[8:1],8,7,7,{16}5,6,5,6,
{8}4-2[8:1],5-1[8:1],4,5,4-8[8:1],5-7[8:1],4,5,
2,2,2/1,2,2/4,2,{16}8,1,8,1,
{8}7-3[8:1],7,8-4[8:1],8,1-5[8:1],1,2-6[8:1],2,
3-7[8:1],3,4-8[8:1],4,5w1[8:1],5,{4}5b,
7v5[8:1]/3v5[8:1],3b/7b,8v6[8:1]*v2[8:1],8b,
{8}7/5,7,7/8,7,7/2,7,{16}4,5,4,5,
{8}3x-1[8:1],3,7-5[8:1],7,4-8[8:1],4,6V42[4:1],6,
{4}2<6[4:1],6V41[4:1],1V73[4:1],3,
2-4[8:1]*v5[8:1],2b,7-5[8:1]*v4[8:1],7b,
8-4[8:1]/1-5[8:1],1b/8b,{8}36,27,{16}1,8,1,8,
{8}2>5[8:1],2,6-1[8:1],6,3p7[8:1],3,5,5,
{4}6-2[8:1],6/5-1[8:1],5/4-8[8:1],4/3-7[8:1],
3/2>6[4:1],6<2[4:1],2V48[4:1],8b,
{8}7,7,6/5,6,4b/5b,5,{16}3,4,3,4,
(195){4}2h[#0.615387],E2,(190)3h[400:199],E3,
(180)4h[#0.6666718],E4,(170)5h[#0.7058868],E5,
(150)6h[#0.8000031],E6,(140)7h[#0.8571472],E7,
(120)8bh[#1],E8,(110)1b,1-5-2-6b[8:15]/8-4-7-3b[8:15],
(105){1}1b/8b,
&inote_6=
