&title=Melodiniq
&artist=onoken a.k.a. owl*tree
&first=0.03
&des=GBLKH a.k.a VTXForce
&lv_5=14+
&inote_5=(193),,,,
{12}E2,E3,E4,E5,,,E8,E7,E6,E5,,,E1,E2,E3,E4,E5,E6,E1,E8,E7,E6,E5,E4,
A1,A2,A3,A4,,,A8,A7,A6,A5,,,A1,A8,A7,A6,A5,A4,A8,A1,A2,A3,A4,A5,
1x,2x,3x,4x,,,8x,7x,6x,5x,,,3x,2x,1x,8x,7x,6x,2x,3x,4x,5x,6x,7x,
{2}E3h[16:28],E4h[16:21],E6h[16:14],E7h[16:7],1bx-4-2-5b[4:9]*-6-8-5b[4:9],
,,,,{4},{8},,Ch[8:8],,,,{4},,8bx-3-1v4[4:5]*-5-7v4[4:5],,,,,,,,
6h[4:2]/2pp1[8:6],,,,6pp5[4:3],,,,1b>8pp5b[4:9],,,,,,,,,,8h[4:2],,7<3[4:2],,,
{16},,8,7,{4}6qq1>6[4:6],,,,,,,,
{24}B1/7x,B8,B7,B6,B5,B4,B3,B2,E1,E8,E7,E6,{16}E5,E4,E3,E2,E1,E8,E7,E6,
{12}4x,3x,2x,1x,8x,7x,{8}6x>3[8:1],,,,
{8}7-4[8:1],8,7,2-5[8:1],1,2,8h[8:1],{16}2,3,{8}4V68[8:4],,3,3,2,2,1h[8:2],,
7-4[8:1],8,7,1-5[8:1],8,1,7h[8:1],{16}4,3,{8}2<6b[8:4],,3,3,4,4,5h[8:2],,
6-1[8:1],5,6,3-8[8:1],4,3,7h[8:1],{16}5,4,{8}3V17[8:2],,6,6,5,5,
{16}1,2,3,4,1,8,7,6,2,3,4,5,8,7,6,5,8,1,2,3,6,5,4,3,2,1,8,7,2,3,4,5,6,7,8,1,
{4}2>5[4:1],5<8[4:1],8>3[4:1],3,6>3[4:1],3>8[4:1],8<5[4:1],5,
1xq5[4:1],5q1[4:1],1V35[4:1],5V71[4:1],1>5[4:1],6,
{8}7,8,1x-6[8:1],,1/4-1[8:1],,8,7-4[8:1],,3,2-7[8:1],,6,5-2[8:1],,1,1-5[8:1],,1/8>3[8:1],,
8/4-1[8:1],,47,6-3[8:1],,26,1-5[8:1],,6/1,7-4[8:1],,37,1>4[8:1]*<6[8:1],,1w5b[8:1],,
1b>1[4:5],,,,,,,,,,,,,,,,E3,E5,E4,E6,E2,E3,E4,E5,,,,,,,,
E2,E7,E5,E6,E4,E8,E7,E6,E5,,D4,D5,D6,A2,A1,A8,A7,A1,A2,A3,A4,A8,A7,A6,A5,
{24}2x,3x,4x,5x,6x,7x,{16}8x,1x,2x,3x,{12}4x,5x,6x,{12}7x,8x,1x,
{8}2h[8:3]/4h[8:3],,,,3h[8:2]/5h[8:2],,,4<2[4:3]/6,,,,E5,E6,E7,E8,E1h[8:2],,3h[64:1],,
1,2,3,4,5h[8:2]/7h[32:1],,6,,3h[64:1]/4,,2,1,8,
7h[8:3]/5h[8:3],,,,6h[8:2]/4h[8:2],,,5>7[4:3]/3,,,,E5,E4,E3,E2,E1h[8:2],,6h[64:1],,,
2,3,4,5h[4:1],,6h[32:1],,,3,7,4,8,5qq2>6[4:11],,{16},,7,8,{8}1qq6<2b[4:9],,,,,,,,,,,,,,,,,,,,,,,
2,6,5,4,3,12,2,25,2,87,7,74,7,{16}2,1,2,1,3,8,3,8,4,7,4,7,5-2-8-6-3[4:3],6,5,6,
{4}4h[4:3],,,,
(196)1b>6[8:4],,7h[8:1],8h[8:1],{12}2,2,2,4,4,4,{8}3,3,{16}8,7,6,5,
24,,3,3,3,,24,,{8}1-5[8:1]/5,8/7-4[8:1],,,{12}2,2,2,8,8,8,2,3,4,6b/5b,,,
{8}7,7h[8:1],8,8h[8:1],{16}6,1,6,1,5,2,4,3,{12}7,7,7,1,1,1,6,5,4,3b,,,
{16}7,,7h[8:1],,2,1,2,,38,,5V31[8:3]/7,,,,1,,
{8}8,8,7,7,{16}6,,6,5,4,,4,,
{4}8b<3b[8:4]/3b,,2h[8:1],1h[8:1],{12}7,7,7,5,5,5,{8}6h[16:1],6h[16:1],{16}1,2,3,4,
75,,6,6,6,,75,,{8}8-4[8:1]/4,1-5[8:1]/2,,,{12}7,7,7,1,1,1,26,37,48,1b/5b,,,
{12}3,3,3,{8}8h[16:1],8h[16:1],{16}1,7,2,6,3,5,4,6,
{12}37,2,1,8h[12:2]/4h[12:2],,,15,26,37,
8h[8:1]/4h[8:1],,,{4}5>1-7z3b[4:6]/1<5-3s7[4:6],,,,,,,,
(206){32}1b/8b,2/7,3/6,4/5,,,,,{16}2,4,2,5,3,6,3,7,4,8,4,1,
4,3,2,1,4,5,6,7,2,1,2,8,3,7,3,6,
4,3,2,1,4,3,2,1,5,6,7,8,5,6,7,8,
2,1,2,1,2,3,2,4,{24}1b,8,7,6,5,4,8b,1,2,3,4,5,
(209){16}8,7,1,7,2,7,3,7,4,3,2,1,7,6,5,4,
8,3,8,3,1,4,1,4,2,3,4,5,8,7,6,5,
2,3,4,5,1/6,7,8,1,25,6,7,8,1/5,2,3,4,
8,6,8,6,1,7,1,7,{24}8b,1,2,3,4,5,1b,8,7,6,5,4,
(212){24}1b,2,3,7,6,5,2,3,4,8,7,6,
{16}1,2,8,7,2,3,7,6,4,5,4,5,3,6,2,7,
{24}1x,8x,1x,8x,1x,8x,2,3,4,5,6,7,
(215){16}1,8,1,8,2,1,2,1,2b,3,4,5,6,7,8,1,
2/6b,37,48,15,6,7,8,1,2b/6,37,48,15,6,7,8,1,
(218)7b/2b,6,5,4,8,7,6,5,2,3,4,5,1,2,3,4,
{24}8,7,6,2,3,4,7,6,5,1,2,3,8,7,6,5,4,3,8,1,2,3,4,5,
(221){16}7,6,7,6,7h[8:1],,3,4,2,4,3h[8:1],,7,5,6,5,7,8,1,2,4,3,2,1,
{12}7,7,7,6b/8b,,,
(224){24}3,4,3,4,{12}2,5,1,7,4,8,3,4,1,7,
2,4,3,8,6,7,1,3,2,{16}5,4,5,4,
(227){8}6,6,6,6,{24}6/E1,E2,E3,6/E4,,,6,,,6,,,
7/E2,E3,E4,7/E5,,,7,,,7,,,8/A2,A3,A4,8/A5,,,8,,,8,,,
(230){16}2b,1,2,1,2,1,2,1,3,8,3,8,4,7,4,7,
5,6,4,6,3,6,2,6,3,7,2,6,1,5,8,4,
7hbx[24:24]/A3h[24:24],,,,,,,,,,,,,,,,
{19},8/4,15,26,37,48,51,62,7,8,1,2,3,4,5,6,7,8,1,
(236){4}6b-8[8:1]/2b-4[8:1],2-7[8:1]/6-3[8:1],26,15,
{8}3-1[8:1],3-5[8:1],,,8,7,6,5,{16}E2,E3,E4,,{8}8h[8:2],,
5-7[8:1],4,3,2bh[8:2],,,3h[8:1]/4h[8:1],,45,56,67,78,
1-6[8:1]/8,,12,,3-5[8:1],4-2[8:1],,,7-5[8:1],7-1[8:1],,,
4,5,6,7,8h[8:2]/4,,3,2b/4b,6,5b/7b,4b/8b,2bpp4>1b[8:5]/6bpp8<5[8:5],
,,,,,,,,
3h[4:2]/4,,,,B2/B3,,,45,,56,5/6h[8:4],,B6/B7,,1,,
2/4h[8:4],,,,B8/B1,,35,35,,46,46,,7qq1[8:3]/5,,3h[8:2],,,,
4b,,2,2,5,5,3h[8:1],4h[8:1],5h[8:1],6h[8:1],2h[8:1],4h[8:1],5h[8:1],7h[8:1],
Ch[8:2],,8,8,81,72,63,5pp8[8:4]/4qq1[8:4],,,,,,,,,
(240),18,{24}1b/8b,2b/7b,3b/6b,4b/5b,,,
{8}2-5[8:1],2,7-4[8:1],7,1>4[8:1],1,8<5[8:1],8,{16}3,4,2,,6,5,7,,
{8}1,1,2,2,34,3,45,5,56,47,38,12,{12}8,7,6,2,3,4,
{8}7-2[8:1],7,5-1[8:1],5,8-4[8:1],8,2,2,
{16}5,6,7,8,4,3,2,1,7,8,7,8,6,2,6,,
{24}1hb[8:2]/7b,6,5,4,3,,,,,8hb[8:2]/2b,3,4,5,6,,,,,17,,,,,,
{16}2,8,2,8,3,7,3,7,4-8[8:1],6,4,6,4,,,,
{8}7-4[8:1]/1,7,2-6[8:1],2,8-4[8:1],8,3-8[8:1],3,
{12}7,6,5,1,2,3,{16}5,6,7,8,2,3,4,5,
7,6,7,6,7h[8:1],,2,8,3,1,4h[8:1],,8,7,6,5,
2,4,2,4,3,5,3,5,8,6,1,7,2,8,3,1,
{8}4,4h[8:1],8,8h[8:1],6,6h[8:1],2,2h[8:1],
{12}5,4,3,12,8,7,{16}64,3,2,1,78,6,5,4,
{8}13,1h[8:1]/3h[8:1],,68,6h[8:1]/8h[8:1],,27,2h[8:1]/7h[8:1],,
45,4-8b[8:1]/5-1b[8:1],,4/5,,2x/7x,,
{16}1b/6hb[8:2],,,,1,2,3,4,2,3,4,5,3,4,5,6,
8,7,6,5,7,6,5,4,6,5,4,3,2,1,8,7,
6/1b,8,7,6,5,4,3,2,1h[8:1]/7b,6,5,4,3,2,1,8,
7h[8:1]/5b,4,3,2,1,8,7,6,5h[8:1]/3b,2,1,8,7,6,5,4,
3/1hb[8:2],,,,
7,8,7,8,7,8,7,8,7,8,7,8,
7,6,5,4,7>7b[8:4]
,6,5,4,A7,A8,A1,A2,A3,A4,A5,A6,
{24}1,2,3,4,5,6,7,8,1,2,3,4,7,6,5,4,3,2,1,8,7,6,5,4,
{16}1,3,1,3,1,3,1,3,
{20}4/2b,5/3b,6/4b,7/5b,8/6b,1-5[8:1],2,3,4,5,
(240){32}6/1b>5V38s4-1b[4:19]*<5V72z6-1b[4:19],Cf,,,,,,,{4},,,,,,,,,,,,,,,,,,,,,,,,,
(265){12}3,,2,,1,,8,,7,,6,,2,,4,,3,,5,{48},,,,,,,6,,,,,,,,,,,7,,,,,,,,,,,8,,,,,,,,,,,,1,,,,,,,,,,,,,,,,,,,,,,,,,,,,
{20}2,3pp5[100#4:4],4pp5b[100#4:4],
E
