&title=Turn the story
&artist=technoplanet feat. Kuroto Sion
&first=-0.02
&des=開脆兔Rabbit
&clock_count=4
&lv_5=14
&inote_4=(220)
{16}
8b-2[16:1],,,,3b-7[16:1],,,,6b-4[16:1],,,,
8,1,2,3,4,5,6,7,8,1,2,3,
&inote_5=(220)
{1},
{48}3xh[48:52],,,,,,,,,,,,,,,,,,,,,,,,,,,,,,,,,,,,,,,,,,,,,,,,,,,,7xh[48:126],,,,,,,,,,,,,,,,,,,,,,,,,,,,,,,,,,,,,,,,,,,,,,,,,2xh[48:73],,,,,,,,,,,,,,,,,,,,,,,,,,,,,,,,,,,,,,,,,,,,,,,,,,,,,,,,,,,,,,,,,,,,,,,,,,,,,,,,,,,,,,,,,,,
{16}
3,4,5,6,7,8,1,2,3,4,5,6,E8,E1,E2,E3,E4,E5,E6,E7,E8,E1,E2,E3,
7,,,,,,6,,,,,,5s1[8:10],,,,,,,,,,,,4v1[8:4],,,,,,,,,,,,,,,,
2v5V36[8:8],,,,,,E1,,B8,,E8,,B7,,E7,,,,,,,,,,
8h[8:1],,,,1>8b[8:6],1,1,1,1h[8:6],,,,,,,,,,,,,,,,
1,2,3,4,5,6,7,8,1/E6,E7,E8,E1,E2,E3,E4,E5,
2h[8:4]/E6f,,,,8,7,6,5,4,3,2,1,8,7,6,5,E2,E1,E8,E7,E6,E5,E4,E3,
E2/7h[8:2],,,,,,6h[8:2],,,,,,5z1[8:10],,,,,,,,,,,,4v1[8:4],,,,,,,,,,,,,,,,
8-4[8:1]/2,,,,8/7h[8:4],,,,,,6,,6,,,,
4-8[8:1]/6,,,,4/3h[8:4],,,,,,2,,2,,,,
1-5[8:1]/8-4[8:1],,,,18,,,,,,36,,36,,,,
2v5[8:1]/7-4[8:1],,,,27,,,,36,,27,,18,,,,
7-4[8:1],,4-7[8:1],,7-2[8:1],,2<4[8:4],,,,3v8[8:2],,3,,,,,,,,
1b-7[16:1],,,,6b-2[16:1],,,,3b-5[16:1],,,,
D1/E1,E8,E7,E6,E5,E4,E3,E2,
E1/3x-5[8:1],,,,3,,7-4[8:1],,,,7,,1-5[8:1],,,,1,,,,
8b-2[16:1],,,,3b-7[16:1],,,,6b-4[16:1],,,,
8,1,2,3,4,5,6,7,8,1,2,3,
5>1[8:6]/4,,6,,,,6,,7,,,,7,,6,,5,,,,
4<8[8:6],,3,,,,3,,2,,,,2,,3,,4,,,,
5>1[8:6],,6,,,,6,,7,,,,7,,6,,5,,,,
1q5[8:1],,,,1p5[8:1],,,,1>8[8:4]*>8[8:4],,,,1,,,,,,,,,,,,
(209)
1,,,,8,,,
{24}
1,,,8,,,1,,,
{32}
8,,,1,,,8x,,
{48}
1x,,,,8x,,,1x-5b[8:1],,,8x,,1x,,8x,,1x<7-2-6-3<5[16:19],,8xh[48:1],,1xh[48:1],
(220)
{1}Cf,
{16},,,,,,,,
{32}
6x/2x,7x/3x,8xh[32:10]/4xh[32:10],,,,,,,,,,
,7x/3x,2x/6x,5xh[32:9]/1xh[32:9],,,,,,,,,
,6x/2x,7x/3x,8x/4x,1xqq6[8:5]/5x-2[8:1],,,,,,,,,,,,,,,,,,,,
{16}
2,,,,2h[8:2],,,,E7,E6,E5,E4,E3,E2,E1,E8,
7x/3x,,,,2x/6x,,,,1,2,3,4,5s1[8:2],6,7,8,
1-5[8:1],,,,,,,,3xh[4:1],,,,6xh[4:1],,,,
4,5,3,6,4,5,3,6,4h[4:1],,5h[4:1],,,,,,
1q5[8:1],,,,6>7[16:7],,,,E6,E5,E4,E3,E2,E1,E8,E7,
4x/6x,,3,,2,,1x/8x,,7,,6,,3x/5x,,2,,1,,8x/7x,,6,,5,,
1>4[8:1]/4<7[8:1],,,,1-5[8:1]/4,,,,
1>4>1b[8:4],,,,1<6[8:2],,,,1-5b[8:2],,,,,,,,
8<5<8b[8:4],,,,8>3[8:2],,,,8-4b[8:2],,,,,,,,
1h[8:4],,,,,,,,
8,1,8,1,8,1,8,1,8,1,8,1,8,1,8,1,7,2,7,2,6,3,6,3,
5h[8:3],,,,,,4h[8:3],,,,,,3h[8:2],,,,
1,2,3,4,5,6,7,8,
{24}E1,E2,E3,E4,E5,E6,D7,D8,D1,D2,D3,D4,
{16}
4xh[8:4],,,,5,6,7,8,1,2,3,4,5,6,7,8,4,3,2,1,8,7,6,5,48,7,6,5,4,3,2,1,
8xh[8:4],,,,1,2,3,4,5,6,7,8,1,2,3,4,8,7,6,5,4,3,2,1,48,3,2,1,8,7,6,5,
4xh[8:2],,,,7,6,5,4,8,7,6,5,1,8,7,6,45,3,2,1,8,7,6,5,4/E1,E8,E7,E6,E5,E4,E3,E2,
8xh[8:2],,,,3,2,1,8,4,3,2,1,5,4,3,2,
E8/1,E7,E6,E5,E4,E3,E2,E1,E8/D4,D3,D2,D1,D8,D7,D6,D5,
{4}
4xh[8:2],5xh[8:2],6xh[8:2],7xh[8:2],8h[8:2],1h[8:2],2h[8:2],3h[8:2],
4h[8:8],,,,6h[8:4],,B5/B4/E5,,
(110)
{8}
2z6[8:3],2h,,,2z6[8:3]*z6[8:3],2h,,,
2z6[8:3],2h,,,2z6[8:3]*z6[8:3],2h,,,
2>2[8:11],2h,,,2,2h,,,
2,2h,,,3-6[8:5]*-6[8:5],3h,,,,,,,,
{32}
A3,E4,E6,A6,,,,,,,,,
(240)
{24}
A7/D8,E7,B6,B5,E5,A4,A2/D2,E3,B3,B4,E5,A5,A8/D8,A7,D7,A6,D6,A5,
1x,2x,3x,4x,5x,6x,7x,8x,1x,2,3,4,5,6,7,8,1,2,
{16}
3-6[8:1],,,,7-2[8:1],,,,4>8[8:4],,,,8,,7,,6,,5,,4-8[8:1],,,,
4/1>4[8:1],,,,1/7<4[8:1],,,,7,,,,
B3/B4,,,B5/B6,,,B2/A2,,B7/A7,,,,
28,,,,28,,,,28,,,,1,,1,,1,,1,,1w5[8:1],,,,
{32}
1<7-5>2-6-4-2-7[8:8],B1f,C,B5,,,,,,,,,,,,,,,,,,,,,,,,,,,,,,,,,,,,,,,,,,,,,
{16}
2,3,4,5,1,2,3,4,8,1,2,3,7,8,1,2,6,7,8,1,5,6,7,8,
1b-5[8:2]/4b-2[8:2],,,,,,,,,,,,7b-4[8:2]/3b-8[8:2],,,,,,,,,,,,6bv8[8:2]/2bv4[8:2],,,,,,,,,,,,
{12}
3,1,1,2,8,8,1,7,7,
{16}
8x-4[8:1],,,,8/6<1[8:1],,,,6,,,,
{32}
4x-8b[8:1],3x,2x,,,,,,
{16}
4V25[8:2],,,,,,,,
1x-5[8:1],,,,1/3>8[8:1],,,,3,,,,
{32}
5x-1b[8:1],6x,7x,,,,,,
{16}
5w1[8:1],,,,,,,,
3b-6[8:1]/7b-2[8:1],,,,3b-8[8:1]/7b-4[8:1],,,,3b/7b,,,,
5xb/1xb,,5xb/1xb,,6b/2b,,6b/2b,,7b/3b,,7b/3b,,
3h[4:1],,,,2h[4:1],,,,1h[4:1],,,,8,1,8,1,8,1,8,1,2-5[8:1]/7-4[8:1],,,,
7bp4q7[8:33]/2b,,E5f/A5/A4,,,,,,,,,,D1/E1,E2,E3,E4,E5,E6,E7,E8,E1,E2,E3,E4,
(239)D5/E5,
(238),
(237),,
(236),
(235),
(234),
(233),
(232),,
(231),
(230),
(229)C,
(228),
(227),,
(226),
(225),
(224),
(223),
(222),,
(221),,
(220)
3-8[16:15],,,,,,,,,,,,,,,,,,,,,,,,
{12}
1,2,3,8,1,2,7,8,1,6,7,8,5,6,7,4,5,6,
{32}
3x,4x-8[32:123],,,,,,,
{8},,,,,,,,,,
B2,,,B8,,,B6,,,,
{32}
,,,,,,7,6,
5-1[8:7],,,,,,,,,,,,,,,,,,,,,,,,,,,,,,,,,,,,,,,,,,,,3,,4,,
{4}
5>3-6-2-7>1[8:18],,,,,,,,,,
{16}
E7,E6,E5,E4,E3,E2,E1,E8,E7/3x,2x,1x,8x,7x,6x,5x,4x,3/7,2/6,1/5,8/4,7V13[8:3]/3V57[8:3],
,,,,,,,,,,,,E
