&title=girls.exe
&artist=rintaro soma
&first=0
&des=ナナミ respects for 7.3GHz
&lv_5=14+
&inote_5=(188)
{4},,,,,
{4}Ch[8:3],,,
{4}1x-3-5-7-1b[4:12]/6x-8-2-4-6[4:12],,,,,,,,,,,,,,C,,
{4}2x-8-6-4-2[4:10]/1x-7-5-3b[4:9],,,,,,,,,,,,8z4b[8:4],,,,
{8}3,,3,,5h[4:2],,,4,4,,56,,7<4[8:2]/8,,,,
{8}2,,34,,6,,57,,8,1,2,3,
{16}4hx[8:2]/5x,6,7,8,1,2,3,4,
{16}5,5,5,5,5,5,5,5,7,7,7,7,7,7,7,7,1,1,1,1,1,1,1,1,3h[384:1],3h[384:1],3h[384:1],3h[384:1],3h[384:1],3h[384:1],3h[384:1],3h[384:1],
{16}8,4,8,4,8,4,8,4,7,3,7,3,7,3,7,3,
{16}6x,2,6x,2,6x,1,6,1,6x,8,6x,8,6x,7,6bx,,,,,,,,,,,,,,,,,,,,,,,,
{16}3,2,1h[384:1],1h[384:1],1h[384:1],1h[384:1],1h[384:1],1h[384:1],1h[384:1],1h[384:1],
{8}2bxv1[8:1],E5,E6,,7v8[8:1],E5,E4,,2x/E1,E8,E7,E6,E5/1-5[8:1],,,,
{8}8,
{96}6,4h,,,,,,,,,,,6,4h,,,,,,,,,,,6,4h,,,,,,,,,,,
{16}2,5,
{96}1hb[384:1],,,,,,,,,,,,1hb[384:1],,,,,,,,,,,,1hb[384:1],,,,,,,,,,,,
{8}57,57,
{16}4,6,3,5,1,,8hb[32:11],,,,,,
{32}B8,C,B4,,,,,,
{16}2,3,2,3,2h[8:2],,6,,4,3,,4,5,,7,,1,8,1,8,
{16}2x,,,5x/7x,,,1x/8x,,
{16}2,,3,5,4,5,3,,7,,7h[8:2],,,,1x,,,8x,,,2x,,,7x,,,3x,,,5b,,,,,
{8}7v6[8:1],86,,,2v3[8:1],13,,,4,E7,5,E8,6x,7x,8x,
{16}2,1,2,1,2,1,2,1,3,8,3,8,3,8,3,8,1,7,1,7,1,7,1,7,
{16}1,2,3,4,5x/6x,,1x/8x,,
{32}D8,A7,D7,A6,D6,A5,,,A2,D3,A3,D4,A4,D5,A5,,
{12}8,8,8,
{24}1hx[8:1]/A7,D7,A6,D6,A5,D5,
{8}2,,8,17,6z2[8:2],,2,,
{16}3,,8,5,7,,46,,
{24}A3,E3,E2,E1,,,A5,E6,E7,E8,,,1x,B1,C,B5,A5,,7x,,,,,,
{16}8,8,,,18,18,,,
{8}4,3,2,4,3,2,4,3,2,1,8,7,56,45,34,2,
{8}5,6,7,5,6,7,5,6,7,8,1,2,3<6[8:1],6,3,,
{8}8,7,6,8,7,6,8,7,6,5,4,3,2,18,7,36,
{8}2,1,8,2,1,8,2,1,
{16}87,6,5,4,1,2,3,4,8,1,2,3,4,5,6,7,
{8}8h[8:2],1,2,8h[8:2],1,2,8h[8:2],1,2-5[8:1],8-4[8:1],2,8,1<6[8:1],,12,,
{8}4h[8:2],5,6,4h[8:2],5,6,4h[8:2],5,6h[8:1],7h[8:1],8h[8:1],1h[8:1],2,45,27,,
{8}1h[8:2],8,7,1h[8:2],8,7,1h[8:2],8,7-4[8:1],1-5[8:1],7,1,8,7,6,5,
{16}1,2,3,4,1,2,3,4,5,6,7,8,1b,1b,1bs5b[8:1],,,,,,,,,,4z8[8:1]*z8[8:1]/5,,,,,,,,
{16}2>5[8:1],,3,1,2,,8,,7-4[8:1],,4-8[8:1],,7,,1-5[8:1],,,,17,,8,,1,,4-8b[8:1],,3,,46,,,,
{8}7-3[8:1],,78,,1-6[8:1],6-2[8:1],1,8,8-4[8:1],,28,1-5[8:1],,16,8,,
{12}7,6,5,6,5,4,8,7,6,8,1,2,
{8}3-6[8:1]/7-2[8:1],,37,,48,37,26,15,8v3[8:1],4-7[8:1],8,4,,2,12,
{32}18,7,6,5,,,,,27,,,,18,2,3,4,,,,,
{8}2x-5b[8:1]/6x-1b[8:1],2x/6x,,,
{16}7<4[8:1],,6,8,7,,1,,2-5[8:1],,5-1[8:1],,2,,8-4[8:1],,,,82,,1,,8,,5-1b[8:1],,6,,53,,,,
{8}7v4[8:1],4V61[8:1],7,2,3-8[8:1],4,37,6,
{24}15,2,3,4,5,6,8,1,2,3,4,5,
{12}6h[12:1],7h[12:1],8h[12:1],1h[12:1],2h[12:1],3,
{16}E6/4h[8:1],,,B4/7h[8:1],,,C1/1,,
{16}1b,,,,E4/7h[8:1],,,B5/2h[8:1],,,C1/8,,8b,,,,
{16}2,3,4,5,6,7,8,1,B6/2h[8:1],,,E4/8h[8:1],,,E3/7,,,
{16}6/E2,,,8b,,,,4,,5,,3b/6b,,,,
{24}8,7,6,1,8,7,2,1,8,3,2,1,
(141)
{4}8b<7-5-3>2v8b[4:39],,,,,,,,
(211.5)
{4}1hx[8:2],,,,,,,,1hx[8:2],,,,,,,,1hx[8:2],,,,,,,,1hx[8:2],,,,,,,,1hx[8:2],,,,,,,,1hbx[8:2],,,,,,,,Cf,,,,,,,,
{4}4w8[4:12]/5w1[4:12],,,,,,,,,,,,,,4x-8b[8:1]/5x-1b[8:1],4bx/5bx,
{16}2-6[8:1],,,,12,,8-4[8:1],,,,78,,6-4[8:1],,,,6/2-8[8:1],,,,2-6[8:1]/7-1[8:1],,,,2V46[16:3]/7,,,,2/8-5[8:1],,,,
{8}8,4,3,1-4[8:1],5,6,7<4[8:1],7,
{16}2,1,8,7,6,5,4,3,2-6[8:1]/6,,,,28,,,,
{16}7-3[8:1],,,,87,,1-5[8:1],,,,21,,3-5[8:1],,,,3/7-1[8:1],,,,7-3[8:1]/2-8[8:1],,,,72,,,,
{16}15,26,37,48,
{8}5-2[8:1],,8,8,17,1-5b[8:1]/7-3b[8:1],,,,,18,,
{16}4,5,4,5,3b/6b,,,,
{16}2,3,4,5,3,4,5,6,74,5,6,7,8/4b,1,2,3,47,6,5,4,6,5,4,3,25,4,3,2,1/5b,8,7,6,
{16}52,,3,4,3,,25,,47,,6,5,6,,47,,3,5,3,5,2,6,2,6,1,7,1,7,
{4}8b-4b[8:1],1hb[8:6],,,,
{16}3,6,3,6,2,7,2,7,1,8,1,8,2b/7b,,,,
{8}2-4[8:1],1-5[8:1],2,1,8-4[8:1],7-5[8:1],8,7,1>4[8:1],5,1-6[8:1],8,1-4[8:1],5,1,,
{16}56,,7,8,7,,34,,2,1,2,,8,1,8,1,7,6,5,4,1,2,3,4,8,1,2,3,4/8-4[8:1],5,6,7,
{16}8bx/4bx,3,2,1,5,6,7,8,2,1,3,8,4,7,5,6,
{16}4-8[8:1]/7-4[8:1],,,,47,,,,26,,2b/6b,,,,,,
{16}4,7,4,7,4,7,4,7,3,5,3,5,3,5,3,5,1,7,1,7,1,7,1,7,2,8,2,8,2,8,2,8,
{16}1,8,1,8,2,7,2,7,3,6,3,6,4,5,4,5,3,6,2,7,1,8,1,8,2bx-6[8:1],,3b/8b,,2bx,,,,
{16}57,,6,5,7,,18,,24,,3,4,2,,18,,2-5[8:1],,7-4[8:1],,2,,7,,1,,2,3,45,6,7,,
{8}1b,28,1b,27,1b,2-5[8:1]/6-1[8:1],,2b/6b,,,4b/8b,57,
{24}6b,5b,4b,3b,2b,1b,8b,7b,6b,5b,4b,
{24}2,3,2,3,2,3,2,3,2,3,2,3,2,3,2,3,2,3,2,3-8b[96:1],2,3,2,3,2,
{1}3b,
{8}2-5[8:1]/8,7,2,,
{16}46,,3,4,,6,5,,7,8,,,1,,82,,3-8[8:1],,4,,5,,,,
{16}53,,6,5,,3,4,,2,1,,,8,,17,,6,,6,,4,7,4,7,3,,2,,1bx,,,,
{16}72,8,1,2,3,4,5,6,27,1,8,7,6,5,4,3,
{8}7-4[8:1],2-8[8:1],7,2,6-8[8:1],1-4[8:1],6,1,
{16}7,7,3,,1,,8,8,2,2,7,7,4,4,5,5,
{32}1b,2,3,4,,,,,1b,2,3,4,,,,,2,3,4,5,6,7,8,1,2,3,4,5,6,7,8,1,
{8}2-5[105.75#16:1]/7p4[105.75#8:13],,,,2b,,,,,,,,,,,,,,,,,,,,,,,,,,,,
{16}3h[16:1],6h[16:1],2h[16:1],7h[16:1],1h[16:1],8h[16:1],
{32}B1,C,B5,
