&title=絡繰りドール
&artist=SOUND HOLIC
&smsg_5=咒詛「魔彩光の上海人形」
&first=0.50
&lv_1=1
&lv_5=14
&des_1=音
&des_5=GANTZ
&wholebpm=152~160
&demo_seek=74.2
&demo_len=12
&inote_1=(160)
{4}1,8,1,8,1,8,1,8,1,8,1,8,1,8,1,8,1,8,1,8,1,8,1,8,1,8,1,8,1,8,1,8,
1,8,1,8,1,8,1,8,1,8,1,8,1,8,1,8,1,8,1,8,1,8,1,8,1,8,1,8,1,8,1,8,E
&inote_5=(160)
{16}
2h[8:1],,4,,3h[8:1],,5,,4h[8:1],,6,,5h[8:1],,7,,
7h[8:1],,5,,6h[8:1],,4,,5h[8:1],,3,,2h[8:1]/4h[8:1],,,,
3h[8:1],,5,,6h[8:1],,4,,2h[8:1],,4,,7h[8:1],,5,,
3h[8:1],,6,,6h[8:1],,2,,2h[8:1],,5,,5b/1b,,,,
1b-3[8:1],,5,,1,,5,,3-5[8:1],,7,,3,,7,,
8-6[8:1],,4,,8,,4,,6-4[8:1],,2,,6,,,,
1-3[8:1],,5,,1,,7,,1-7[8:1],,5,,1,,3,,
1-3[8:1],,5,,1,,7,,1-7[8:1],,5,,1,,,,
46,,3,5,3,,6,4,6,,4,3,2,,78,,
17,,2,8,2,,7,1,7,,1,2,3,,56,,
73,,7,6,51,,2,3,48,,7,6,51,,37,,
16,,45,,38,,27,,18,,26,,{24}2,3,4,5,6,7,
{16}
68,,28,,13,,2,8,2,8,2v5[8:1],,8,,28,,
7,,46,,53,,2,4,2,4,2,,3,,12,,
28,,17,,86,,7,1,7,1,7v4[8:1],,1,,71,,
2,,35,,46,,7,5,7,5,7,,6,,78,,
17,,28,,13,,2-5[8:1],8,2,8,2-7[8:1],,2,,2,,
5,,46,,53,,2,4,2,4,2,,3,,12,,
28,,17,,86,,7-4[8:1],1,7,1,7-2[8:1],,7,,7,,
4,,35,,46,,7,5,7,5,7,,6,,78,,
17,,28,,3,4,3,4,,6,7,,18,,27,,
3h[8:1],,7,,6,5,6,5,,3,2,,18,,27,,
45,,36,,2,2,7,7,,1,8,,18,,36,,
3,6,3,6,2,7,1,8,{24}1,2,3,
8,7,6,
2,3,4,
7,6,5,
(152)
{16}
4bq6[2:3]/8bq2[2:3],,,,,,,,,,,,,,,,
,,,,,,,,,,,,,,,,
3,,4,,5,,,,6,,5,,4,,,,
3,,4,,5,,6,,7,,81,,27,,,,
6h[2:1],,1,,2,,3,,4h[8:3],,5,,6,,7,,
12,,,,38,,,,47,,,,,,7v4[8:1],,
,,7,,1h[8:1],,,,2v5[8:1],,7,,2,,7,,
4,,6,,3,,7,,2b-6[8:1]/8b-4[8:1],,,,,,,,
(160)
{16}
4,6,4,,7v5[8:1],,3,,7/3v1[8:1],,3,,37,,7,,
{24}
1,2,3,4,,,
1w5[8:1],8,7,6,,,{16}1b,,,,,,46,,
37,,{24}82,3,4,
{16}5,,1,,
1,,{24}51,48,37,
{16}26,,3,,
3^1[8:1]/7,,3,,3^5[8:1]/7^1[8:1],,7,,3v5[8:1]/7v5[8:1],,,,73,,,,
3,5,3,,2v4[8:1],,6,,2/6v8[8:1],,6,,62,,2,,
{24}
8,7,6,5,,,
8w4[8:1],1,2,3,,,
{16}8b,,,,,,35,,
26,,{24}71,6,5,
{16}4,,8,,
8,,{24}84,15,26,
{16}37,,62,,
{24}6,5,4,3,2,1,
3,4,5,6,7,8,
{16}1bv3[8:1]/5bv8[8:1],,,,,,,,
{32}
1-7[8:1],2,3,4,,,,,
1v6[8:1],2,3,4,,,,,
1,2,3,4,,,,,{16}37,,2-5[8:1],6,
6,,2,,6,4,6,2,6,,1h[16:1]/7h[16:1],,28,,,,
{32}
8-2[8:1],7,6,5,,,,,
8v3[8:1],7,6,5,,,,,
8,7,6,5,,,,,{16}26,,7-4[8:1],3,
3,,7,,3,5,3,7,3,,2h[16:1]/8h[16:1],,17,,,,
{32}
82,3,4,5,,,,,
27,6,5,4,,,,,
18,27,36,45,,,,,{16}27,,{24}8-2[8:1]/2,3,4,
{16}5,,8,,{24}5-8[8:1],
4,3,{16}2,,5,
,{24}2,3,4,{16}5,
,37,,
1v4[8:1]/5v8[8:1],,,,15,,,,{12}2,4,3,7,5,6,
{16}
1bV36[4:1]*V74[4:1],,,,
,,,,
,,35,,
57,,26,,
34,,2,24,,7,57,,1b/8b,,,,,,2,1,
2^5[8:1],,8,,27,,7,8,,6,5,,57,4,3,2,
1/5^8[8:1],,3,,53,,2,1,,3,8,,82,7,6,5,
4/8-4[8:1],,6,,8,,5,3,,4,2,,3,2,1,8,
71,,3,4,3,,6,5,6,,47,,27,,16,,
{24}17,2,3,4,5,6,
7,8,1,2,3,4,{16}51,,8h[16:1],,8,,71,,
{24}82,7,6,5,4,3,
2,1,8,7,6,5,{16}41,,2h[16:1],,2,,28,,
{24}17,6,5,4,3,2,
1,8,7,6,5,4,{16}3,,4h[16:1],,4,,28,,
{24}
17,2,3,4,,,82,7,6,5,,,17,2,3,4,,,82,7,6,5,,,
{16}
7^4[8:1],,1,,27,,2,1,,3,4,,42,5,6,7,
8/4^1[8:1],,6,,64,,7,8,,6,1,,17,2,3,4,
5/1-5[8:1],,3,,1,,4,6,,5,7,,6,7,8,1,
7-5[8:1]/2-5[8:1],,18,,7b/2b,,,,46,,3,5,,2,6,,
1,7,1,8,1,,8,2,8,1,8,,18,,36,,
4,5,3,6,4-1[8:1],,36,,4,,7,7,,1,1,,
26,,26,15,84,,26,,26,37,48,,2v4[8:1]/6v8[8:1],,37,,
26,,,,,,7,4,7,,3,2,,7,6,,
1b/5b,,,,,,,,{24}1,2,3,4,5,6,
7,8,1,2,3,4,
5,6,7,{16}86,,28,,2v5[8:1],1,2,1,2,,{24}1,8,7,6,,,
{16}
4,6,4,,45,,3v8[8:1],4,3,4,3,,{24}4,5,6,7,,,
{16}
1,7,1,,28,,3-5[8:1],1,3,1,3,,{24}1,8,7,6,,,
{16}
3,5,3,,24,,2,3,2,1,2,,{24}82,7,6,5,4,3,
2,1,8,{16}7,,25,,7v4[8:1],8,7,8,7,,{24}8,1,2,3,,,
{16}
5,3,5,,45,,6v1[8:1],5,6,5,6,,{24}5,4,3,2,,,
{16}
8,2,8,,17,,6-4[8:1],8,6,8,6,,{24}8,1,2,3,,,
{16}
6,4,6,,75,,7,6,7,8,7,,{24}17,2,3,4,5,6,
7,8,1,{16}2,,6,4,6,4,,8,2,,{24}1,28,37,46,,,
{16}
6,4,6,,3,5,3,5,,1,7,,{24}8,17,26,35,,,
{16}
3qq8[8:3],7,3,,7,6,5,4,,6,6,,{24}15,26,37,48,,,
{16}
6pp1[8:3],2,6,,2,3,4,5,,3,3,,{24}21,38,47,56,,,
{16}
3,8,3,8,
1,7,1,7,{24}16,2,3,4,5,6,
7,8,1,26,37,48,
{16}51,,,,35,,46,,25,,47,,1b-5[8:1]/8b-4[8:1],,3b/6b,,
1b/8b,,,,,,,,,,,,,,,,
{1},,E
