&title=What is Love?
&artist=TWICE
&first=0.34
&des=PARADOXE-
&lv_5=0
&lv_6=13+
&inote_5=(170)
{8}6h[4:2],,B5,,B4,,,3h[2:1],,B4,,B5,,,8bx,,7h[2:1],,B8,,B6,,,2h[2:1],,B1,,B3,,8,8,,1h[2:1],,B2,,B4,,,,C,5bxqq5[2:1]*pp5[2:1],,,,,,,81,,81,,81,,,,2-6<7[4:1],,7-4-2<1[4:1],,1v6[4:1],,7,,6-8[8:1],,5,,6-8[8:1],6,5,,3-1[8:1],,4,,3-1[8:1],3,4,,7<5[8:1],,8,,7<5[8:1],7,8,,2>4[8:1],,1,,2>4[8:1],
{16}1x,8x,2x,,
{8}7-2[8:1],,,,,,,6,5h[2:1]/3h[2:1],,,,,,1,2,3>5[2:1],4,5,,,,,,,65,4,53,2,81,
{16}6,5,6x,,
{8},7-5[8:1],,B8,,7-5[8:1],7,B8,,2-4[8:1],,B1,,2-4[8:1],2,B1,,5<7[8:1],,B4,,5<7[8:1],5,B4,,4>2[8:1],,B5,,4>2[8:1],
{16}B4,C,4x,,
{8}1-5[8:1],,,,,,,3,4h[2:1]/6h[2:1],,,,,,,8,8,5>1[4:1],,1<5[4:1],,5>1[4:1],,1,,
{12}B7,B6,B5,B1,B2,B3,E7,E6,E5,E1,E2,E3,
{8}Cf,,3h[2:1]/5,,,,6,7,8-4[8:1],1-3[8:1],8,1,,,1,2,3-5[8:1],3,7-1[8:1],7,3-7[4:1],3,7V51[8:2],7,,8h[8:3],,,1,,2,,37,
{16}6,5,6,,4,,62,,3,4,3,,5,,
{32}1x,2x,3x,4x,,,,,,,,,8x,7x,6x,5x,
{16},,43,,25,,16,,8,7,8,7,1,6,1,6,2,8,2,8,
{32}3x,4x,5x,6x,7x,8x,1x,2x,
{8}3b,,,,,,,,2-6[8:1],2,8-4[8:1],8,3-7[8:1],3,5-1[8:1],5,1-5[8:1],,5,,64,7/3>7[4:1],64,73,5-1[8:1],5,2-6[8:1],2,8-4[8:1],8,3-7[8:1],3,7-3[8:1],,3,,,15,48,15,4v1[8:1]/8-5[8:1],,E8/B7/B6/E6/B5/C/B1/E2/B2/B3/E4,,B8/B1/B2/B3/B4/B5/B6/B7/2xV48[8:1]/7xV51[8:1],,Cf,,B7/B1/B2/B3/B4/A4/B8,4bxpp4[8:1]b*qq4[8:1]b,,,,26,15,37,6-3[8:1]/4,,1-5[8:1]/6,,7-4[8:1]/1,,7/2q6[8:1],,1p5[8:1]/2,1,4pp6[8:1],4,8<5[8:1],4>8[8:1],8,4,6-3[8:1],6,2-7[8:1],2,5-8[8:1],5,1-4[8:1],1,4-1[8:1],,1,,28,3/7<3[4:1],28,37,1-5[8:1],1,8-4[8:1],8,2-5[8:1],2,7-4[8:1],7,4-7[8:1],,7,,,48,15,48,1v4[8:1]/5-8[8:1],,E8/B7/B6/E6/B5/C/B1/E2/B2/B3/E4,,B8/B1/B2/B3/B4/B5/B6/B7/2xV48[8:1]/7xV51[8:1],,Cf,,B5/B1/B2/B3/B4/A5/B8,5bxqq5[8:1]b*pp5[8:1]b,,,,37,48,26,3/5-1[8:1],,3-8[8:1]/5,,6-2[8:1]/3,,1>4[8:1]/6,,1/7<4[8:1],6,2qq8[8:1]/7,3,2pp4[8:1],,2w6[8:1],
&inote_6=(170)
{8}3qq4[2:1],,B7,,B5,,,6pp5[2:1],,B2,,B4,,,1b,,2pp1[2:1],,B6,,B8,,,8qq8[2:1],,E4,,B2,,1,1,,6/2q7[8:4],,C,,E1,,,,8b>3v5[8:4],8b,,B4/B5/B6/E5/E6/A5,,,,,5<8[8:3],,E4,,A2,,1<7-2[2:1]b,,7-2-6[2:1],,2-6-3[2:1]b,,6-3-5[8:3],,5,,8-4[8:1],,2/8x,,8-4[8:1]/1,1,2/8x,,2-6[8:1]/5,,6/2x,,2-6[8:1]/5,5,6/2x,,7-4[8:1]/3,,1/7x,,7-4[8:1]/3,2,1/7x,,1-5[8:1]/8,,6/1x,,1>4[8:1]/8,
{16}8,7,6x/1,,6w2[8:1],,,,,,,,,,
{8}2h[4:1],3>8q4[8:5],4,,5,,6h[4:1],,,5,64,5p4[16:7],4,3h[4:1],,,,3,4/5h[4:1],,4,4,6,6,1,
{16}1,8,2x/7x,,,,8/1-6[8:1],,,,
{8}17,,1>4[8:1]/8,7,16,,7-3[8:1]/3,,17,,7<4[8:1]/3x,2,17,,4x-7[8:1]/5,,46,,4>1[8:1]/5,6,47,,8v3[8:1]/1x,,48,,8<5[8:1]/1,
{16}1,2,3x/8,,3w7[8:1],,,,,,,,
{8},6h[4:1],5<8p4[16:10],4,,3,,2h[4:1],,,3,2-6[8:1]/4,,4-8[8:1]/2x,,5-1[8:1]/4x,,7-3[8:1]/5x,,2/7x,,
{12}3x,4,2,6x,5,6,2x,1,3,8x-4[8:1],1,7,
{32}6>8[16:8]/8xb,Cf,,,
{16},,3h[16:4],,,,,,,,2,,,,1-5[8:1],,,,6,,6h[8:3],,,,,,
{16}5,,4,4,
{8}6h[8:1],,5h[8:1],
{16}3,3,4h[8:1],,,,
{8}2/3h[8:1],2>5[8:2],,5p8[8:3],,,7-4[8:1],,,,2/8,
{16}3,4,3,,52,,6,,6,5,6,,47,,
{24}3x,4,3,
{8}6x,6,
{24}5x,6,5,
{8}7x,7,78,6/1,
{16}2bx,1,2,1,3bx,8,4bx,7,3,5,2bx,7,
{32}1x,2,3,4,5,6,7,8,1bh[8:6],Cf,,,,,,,,,,,,,,,
{16}4b,,4b,,4b,,4b,,3-6[8:1]/5,,2,,8-4[8:1],,1,,2-5[8:1],,1,,7-3[8:1],,8,,5x>2[8:1]b*-1[8:1]/7,,,,5,,,,7b/8,,6/5b,,3b/4,,1b/2,,6-3[8:1],,7,,1-5[8:1],,8,,7<4[8:1],,8,,2-6[8:1],,1,,8<5[8:1]*>3[8:1]/2,,,,8,,,,24,,2,8,1>4[8:1],,3/7,,1-5[8:1]/6<1[8:1],,,,6-2[8:1]/1,,,,6-4-2[8:1]/8-6-4[8:1],,,,6/8,,,,7b/8b,,6b/1b>3v5[4:1]b,,,,C,B7/B2/B5/E5/B6/B3/B4,,,7x,,7x-3[8:1],,,,1>6[4:1]/7,,,,1/6>8[4:1],,,,2<5[4:1],,,,5-3-1[8:1],,,,7-3[8:1],,,,73,,,,1b/2,,7b/8,,6/5b,,4/3b,,2-4[8:1]/1,,2,,8,,7,,6-1[8:1],,5,,4-6[8:1],,3,,2-5[8:1]*-6[8:1]/4,,,,2,,,,7b/8,,1/2b,,4b/3,,6b/5,,7-2[8:1],,7,,6-3[8:1],,6,,7-2[8:1],,7,,6-3[8:1],,6,,8-6-4[8:1]*v3[8:1],,,,8,,,,65,,7,8,7-3[8:1],,1/6,,7-5[8:1]/8-5[8:1],,,,8-3[8:1]/7,,,,4-2[8:1]/8<5[8:1],,,,4-8[8:1]/8,,,,8b,,1b>3v5[4:1]b,,,,
{32}C,B7/B2/B5/E5/B6/B3/B4,,,
{8},7x,7x-4[8:1],,7/5-1[8:1],,3-8[8:1]/5,,6-2[8:1]/3,,1>4[8:1]/6,,1/7<4[8:1],6,2pp4[8:1]/7,3,2qq8[8:1]b,,2w6[8:1],,2,,4h[4:1],,8,7,64,,3,25,1-5[8:1]/6-8[8:1],,16,,7,7,1,2,4,4,35,,57,57,8,8,1-4[8:1]/5-8[8:1],,15,,2>5[8:1]/6v1[8:1],,26,,3-8[8:1]/6-4[8:1],7,,,3,3,24,1,1-5[8:1]/8<5[8:1],,18,,3-5[8:1],3,7-3[8:1],7,1-5[8:1],1,6-8[8:1],6,2-6[8:1],1,2/8<5[8:1]b,7,8>3[8:1]b/2,,8z4[8:1]b/6+,,48,3x,2/5x,1,28,7,3-8[8:1]/5-7[8:1],2,3,,1-7[8:1]/6-8[8:1],,1-5[8:1]/6-4[8:1],,1/6,,37,,2<5[4:1],2,5q3[4:1],,4,,6,,7>4[4:1],7,4p6[4:1],,5,,4,4,35,6,54,3,64,7,56,4,35,2,37,1z5[4:1]/6,,8x,8x,8x,5x/7,6,45,3,24,4,37,6,15,
{16}2,2,8,,17,,65,,42,,1w5[8:1],,37,,1b,,,,,,,,5h[4:1]/B3,,,,,,,,6h[4:1],,,,,,,,5h[4:1]/B4,,,,,,,,7h[4:1],,,,,,,,5h[4:1]/B3,,,,,,,,6h[4:1],,,,,,,,5h[4:1]/B4,,,,,,,,
{8}Ch[8:6]/4,,3,,2,,1h[1:1],,8,,8,,8,,8,,1x,1,8x,8x,
{16}2,6,3x,7,4/8h,3,2/6h,1,
{32}4/8h[32:28],7,6,5,4h[32:24],,,,,,,,,,,,,,,,,,,,,,,,,,,,8xb/4xbw8[1:5],73,62,5/1,,,,,,,,,,,,,,,,,,,,,
{4},,,,,,,,,,,,,,,,,,,,,3h[4:1],,5h[4:1],,4h[4:1],,56,
{16}7pp4[1:1]/8,,,,2bh[4:1],,,,,,2xqq6[8:5],3x,4x,,,,,,,,,,5,,5-8[8:1],,,,15,,,,1/2pp8[1:1],,,,7bh[4:1],,,,,,7xpp3[8:5],6x,5x,,,,,,,,,,4,,4-1[8:1],,,,4/8,,,,4/8-4v1v3[8:6],,,,2x,,,,2x,,,,2x,,,,2x,,,,
{32}B8,B1/B2/B3/B4/B5/A5,,,5xqq5[4:1]*pp5[4:1],,,,,,,,,,,,,,,,,,,,
{16}3,,3,,3>6[8:3]/4,,,,4,,,,4-8[8:1],,,,4/1,,,,1,,1,,8,,8,,2>7[4:1]b,6,2,6,2,,,,8xb-6[8:1]/A1/D1/E1f/D2/E2,,,,8x-3[8:1]/1x-3[8:1],,,,1x-5[8:1]/8,,,,1>3[8:1]/6-4[8:1],,,,1x-5[8:1]/6-8[8:1],,,,6-4-2[8:1]/1x,,,,1-5[8:1]/6,,8<3[8:1],,1,,8,,2x-8[8:1],,,,2-4[8:1]/6x-1[8:1],,,,6x>3[8:1]/2,,,,8>3[8:1]*q4[8:1]/6,,,,8x-6[8:1]*-5[8:1],,,,8x-3[8:1],,,,2q6[8:1]/8,,,,7-4[8:1]/2,,8,,1x-3[8:1]/7,,,,8x-6[8:1]/1-5[8:1],,,,1x-3[8:1]/8-4[8:1],,,,1/8-6[8:1],,,,1b/8,,1b>3v5[16:3],,,,1/5b,,,,7-3[8:1],,3-5q2[4:1]b,,2,,1h[4:1],,,,,,4h[4:1],,,,1p3[8:1],,3-8-6-4[16:3]b,,4,,
{12}5x,5x,5x,3x,3,3,1,1,1,6,6,7,
{8}4x-2[8:1]/8xb<5[8:1],,8-4[8:1]*-3[8:1]/4x,,8x-6[8:1],,4-7[8:1]*>1[8:1]/8,,4x-8[8:1],,4x/2-5[8:1],,7-3[8:1]/2,8,2-8[8:1]*pp4[8:1]/7,1,2x-6[8:1],,7x-4[8:1]*-5[8:1]/2,,7x-1[8:1],,7-4[8:1]/5-2[8:1],,5-1[8:1]/7x,,2x-7[8:1]/5,,8-4[8:1]/2,,38,2,1xq5[8:1]/5xq1[8:1],,5x>2[8:1]/1x<6[8:1],,1xq5[8:1]/5xq1[8:1],,15,,2b-5[8:1]b/6b-1[8:1]b,7,26,,3b>8[8:1]b/7b<4[8:1]b,2,37,,2b-5[8:1]/6b-3[8:1],17,2b-8-6[8:1]/6-1[8:1],,6b>3[8:1]*p2[8:1]/2,,6,,
{16}18,,2,1,2,,3/7,,6b/5,,4b/3,,1bqq3-5[1:1]/2,,7b/8b,,,,,,,,,,,,,,,,,,,,,,E
