&title=Dim.
&artist=EN0N/重音テト
&first=0.019
&des=Moma
&lv_5=13+
&inote_5=(124)
{8}
,,,,,,,,1b>7[4:1],
{24},,,
{8}4h[6:1],,
{48}1bx,2bx,3bx,,,7bx,6bx,5bx,,,,,
{16}4h[8:1],
{48}8bx,7bx,6bx,,,,,,,
{24}52,,1,7,,,
52,,1,7,,,
{8}6h[8:1]/4h[8:1],,
{24}3,,3,7,,,
{24}26,,7,1,,,26,,7,1,,,5h[8:1]/3h[8:1],,,,,,
74,,74,,,,
3,,3,5,,5,2,,2,7,,7,4,,4,8,,8,5p4[4:1]b,,,1h[4:1],,,5pp2[4:1]b,,,,,,,,,,,,1x,8x,7x,6x,,,4b/8b,,,,,,
52,,1,7,,,
52,,1,7,,,
{8}2h[8:1]/4h[8:1],,
{24}3,,3,8,,,
{24}46,,7,1,,,46,,7,1,,,5h[8:1]/3h[8:1],,,,,,
26,,17,,,,
3,,3,7,,7,2,,2,5,,5,1,,1,7,,7,3bqq4[4:1],,,25,,,4qq6[4:1],,,,,,5qq7[4:1],,,,,,,,,,,,8w4[8:1],,,,,,8b,,,,,,
{24}2,,,3,,,8-4[8:1],,7,5-2[8:1],,,,,,,,,7,,7,1,,1,8-4[8:1],,7,5,,,2-5[8:1],,,1,,,7-3[8:1],,,8,,,
{32}A2,D2,A1,D1,A8,,,,
{24}3-7[8:1],,,5,,,
{32}8x,1x,2x,3x,,,,,
1b/5b,,,,,,,,
{24}7,,7,8,,8,1,,1,2,,,6>3[8:1],,,5<8[8:1],,,,,,,,,3x,,4,5,,,3x,,4,5,,,8-3[8:1],,,3-5[8:1],,,,,,,,,3x,,4,5,,,3x,,4,5,,,8-3[8:1]b,,,3-5[8:1]b,,,3qq6[8:3],,,,,,,,,,,,7bh[4:1],,,,,,5<8[8:1],,,4,,,1p4[8:1],,,2,,,,,,,,,3x,,4,5,,,7,,7,5,,5,1w5[8:1],,,,,,1b,,,,,,
4h[8:1],,,,,,5h[8:1]/2h[8:1],,,,,,6h[8:1]/1-6[8:1],,,,,,8h[8:1],,,,,,8h[8:1],,,,,,6h[8:1]/1h[8:1],,,,,,2>5[8:1],,,5,,,7qq2[4:1],,,,,,4,,,3,,,1h[4:1],,,,,,6h[4:1],,,,,,
{48}E1,E2,E3,E4,,,
{24},,
{48}8x,7x,6x,5x,,,,,
{24}1b-5[8:1],,,,,,,,,8,,,,,,
52,,3,4,,8,7,,5,6,,2,1,,3,4,,4,2,,,15,,,
{12}8b,7,6,1b,8,7,2b<7>3[4:1],,,3b,,,E6/B5f/E5,,,
{24}2>5[8:1],,,2,,,8-4[8:1],,,8,,,1-6[8:1],,,1,,,5z1[8:1],,,5,,,,,,,,,5w1[8:1]b,,,,,,,,,,,,
{8}1q6[8:1],7,5>2[8:1],,1q5[8:1],7,5>2[8:1],,1-4[8:1],7,5>2[8:1],,1>4[8:1],7,5,,
8-6[8:1],,3-7[8:1]/8-2[8:1],,8-5[8:1],,3-7[8:1]/8-2[8:1],4,8-4[8:1],,3-7[8:1]/8-2[8:1],1,8-3[8:1],,,,
5<8[8:1],3,1p4[8:1],,5<8[8:1],3,1-6[8:1],,5<8[8:1],3,1<6[8:1],,5<8[8:1],3,1,,
4-7[8:1],,7-5[8:1]/4-6[8:1],,4-8[8:1],,7-3[8:1]/4-7[8:1],5,4-1[8:1],,7-3[8:1]/4-6[8:1],8,4-2[8:1],,,,
{24}5x,,6,7,,,2x/5x,,36,74,,,8h[8:1]/2h[8:1],,,,,,1h[8:1]/7h[8:1],,,,,,
5x,,6,7,,,2x/5x,,63,47,,,2h[8:1]/8h[8:1],,,,,,1-6[8:1]/7h[8:1],,,,,,,,,,,,
8,,8,1,,1,2-6[8:1],,,3,,,4h[4:1],,,,,,7,,7,8,,8,1-6[8:1],,,2-6[8:1],,,3-6[8:1],,,,,,,,,,,,
1x,,2,3,,,1x/5x,,26,37,,,4h[8:1]/8h[8:1],,,,,,2h[8:1]/6h[8:1],,,,,,1x,,2,3,,,5x/1x,,62,73,,,4h[8:1]/8h[8:1],,,,,,2h[8:1]/6h[8:1],,,,,,7-4[8:1],,,7,,,3-8[8:1],,,3,,,6-3[8:1],,,6,,,2-7[8:1],,,2,,,4x,,5,6,,,4xw8[8:1]b/8x,,51,62,,,,,,,,,7-4[8:1]/4>7[8:1],,,,,,7b/4b,,,,,,
15,,,7,,,8,,2,4,,4,3,,,7,,5,6,,6,4,,4,7,,5,8,,,74,,3,5,,5,2-5[8:1]*-6[8:1],,,1,,,,,,,,,
2w6[8:1],,,13,,,,,,,,,8b/4b,,,,,5,6p1[8:1],,,4,,,3h[4:1],,,,,,2-5[8:1],,,2-6[8:1],,,,,,,,,E3,,E4,E5,,,E3,,E4,E5,,,2>5[8:1],,,E7,,,E8,,,E1,,,2x,,3,4,,,2x,,3,4,,,6,,6,4,,4,2-6[8:1]*-5[8:1],,8,1,,,,,,,,,8b/4b,,6,5,,5,7,,7,3,,3,8w4[8:1],,,17,,17,,,,,,,2b/6b,,,,,,1w5[8:1]b,,8,2,,2,,,,,,,
6h[8:1],,,,,,6h[8:1]/D1,,,,,,6h[8:1],,,,,,6h[8:1]/D1,,,,,,3h[8:1],,,,,,3h[8:1]/D1,,,,,,3h[8:1],,,,,,3h[8:1]/D1,
,,,,,6,,6,4,,,7-4[8:1],,7,5,,5,,,,,,3,5,,2,,,8h[24:13],,,,1b,,,,,6b,,,,4,,4,6-1[8:1],,6,,,,,,,E3,,E4,E5,,,E3,,E4,E5,,,2>5[8:1],,,,,,E3,,E4,E5,,,2x,,3,4,,,2x,,3,4,,,
2>1[8:3],,,,,,5h[4:1],,,,,,,,,,,,5,,5,3,,24,,,,6,,,75,,84,,,,
{48}1,2,,,,,3,4,,,,,5,6,,,,,7,8,,,,,
{24}1,,1,3,,3,5,,5,7,,7,Chf[2:1],,,,,,,,,,,,
{8}8-5[8:1],,4-7[8:1],2,8p3[8:1],2,4<7[8:1],2,8-5[8:1],2,4-7[8:1],2,8<5[8:1],2,4,,
1-3[8:1],,1-4[8:1]/4-7[8:1],,1-5[8:1],,1-7[8:1]/3-1[8:1],4,1-6[8:1],,4-8[8:1]/1-3[8:1],5,1w5[8:1],,,,
4>1[8:1],,8q5[8:1],6,4>1[8:1],6,8-3[8:1],6,4>1[8:1],6,8-3[8:1],6,4-1[8:1],6,8,,
5-1[8:1],,1-7[8:1]/5-3[8:1],,1-5[8:1],,1-6[8:1]/5-2[8:1],7,5-1[8:1],,1qq7[8:1]/5qq3[8:1],4,1w5[8:1],,,,
{24}4x<8[8:1],,3,2,,,1x,,2,3,,,1h[8:1]/5h[8:1],,,,,,3h[8:1]/7h[8:1],,,,,,
1x<5[8:1],,2,3,,,4x,,3,2,,,8h[8:1]/4h[8:1],,,,,,6h[8:1]/2h[8:1],,,,,,3,,,1b/5b,,,
7,,7,4,,4,6-2[8:1],,,3-8[8:1],,,6,,,3,,,
(124)
{24},,,6,,6,3-1[8:1],,,4-8[8:1],,,3-7[8:1],,,4,,,3,,,,,,
5x>1[8:1],,6,7,,,8x,,7,6,,,8h[8:1]/4h[8:1],,,,,,6h[8:1]/2h[8:1],,,,,,1x<5[8:1],,2,3,,,4x,,3,2,,,4h[8:1]/8h[8:1],,,,,,2h[8:1]/6h[8:1],,,,,,6,,,21,,,87,,,65,,,3q8[8:1]/4,,34,,,,5,,,6h[8:1],,,8x<4[8:1],,1,2,,,3x,,2,1,,,,,,8h[4:1],,,4h[2:1],,,,,,7b<1[8:1],,,,,,,,,,,,
5b,,,1b,,,
{48}3b,2b,1b,8b,7b,6b/D5f,,,,,,,,,,,,,,,,,,,,E
