&title=Operation Spectrum Battle Theme
&artist=cybermiso/tigerlily/DOT96
&first=0.61
&des=α CMi
&lv_5=14
&inote_5=(174){4},{8},,,,,,3,
4,5,6,7s3s7[1:1],2z6z2[8:7],,,,,,,,,,,6,
5,4,3,2qq3-1[1:1],7qq8-6[8:7],,,,,,,,,,,6,
5,4,3,1<4pp8[1:1],2h[8:9],,,,,,,,,,,3,
4,5,6,8>5qq6[1:1],7h[8:9],,,,,,,,,,,{4}2h[8:1]/4h[8:1],
2/4,6h[8:1]/5h[8:1],6/5,
{12}1,5,2,4,,,8,4,7,5,{48},,,,,,,,{16}1,
5,2,4,{4}3h[4:1],{16}8,4,7,5,{4}6h[4:1],
{16}8,5,1,4,{4}2h[4:1],{16}8,4,7,5,{4}6-4[8:1],
6/2h[8:1],{8}1,4/2h[8:1],6,5/7h[8:1],4,3,
2/4h[8:1],3,7/5h[8:1],6,1/4h[8:1],3,8/5h[8:1],6,
{16}3,5,3,5,2,4,2,4,1,3,1,3,{32}8-5[8:1]*-3[8:1],1,2,3,4,5,6,7,
{1}8bxp5[2:1]*q3[2:1],
{16}3-1[8:1],4,2,4,{8}3-7[8:1],7-3[8:1],{4}5-1[8:1],5>2[8:1],
7/5<8[8:1],5,1-4[8:1]/4-1[8:1],1b/4b,
{16}7-2[8:1],5,6,5,{8}7,3,{4}8-4[8:1],8-6[8:1]/3-1[8:1],
8-4[8:1],1-3[8:1],{8}1-7[8:1],7-3[8:1],1,6h[8:3],
,,{4}1b,{8}2/5,{16}3,4,{8}2,1,
7/4,{16}6,5,{8}7,8,{4}1h[4:1],{24}A8,B8,C,B4,,,{8}2>5[8:1],
1,{4}8/2,{8}7-4[8:1],8,{4}7/1,
{8}3>8[8:1],4,{4}3/5,{8}6-1[8:1],5,{4}6/4,
{1}2>8pp4[2:3],
4bpp8b[2:1],
{4}7<4[8:1]/4>1[8:1],4-8[8:1],3h[4:1],{8}7,2h/6<6[2:1],
,,,,,3xh[8:1],,,8-4[8:1],
8,3,3,2-5[8:1],2,7,7,
{4}1<7[8:1]/5>3[8:1],5-8[8:1]/1-4[8:1],5-2[8:1],7h[4:1],
8-3[8:1],8/3,7-4[8:1]/4-7[8:1],7/4,
6-1[8:1],6/1,2-5[8:1]/5-2[8:1],2/5,
{1}1>4q5<8[1:1],
8q1>2>3<4<5[4:3],
{4}6h[1:2],Ch[4:5],,,,,,,3,
4/7,8,{8}2v5[8:1],5>8z4[4:3]*>1s5[4:3],
{1}2,
{4}7h[4:1],5h[4:1],3h[4:1],{8}1,1,
2/8,3/7,4/6,6,{32}1/5,2,3,4,5,6,7,8,{4}1-4[8:1]/5-8[8:1],
{32}1qq2>6b[1:3]`5qq6<2[1:3],Cf,{1},,,{4},,,{16},,,{8}A6,
E6,B5,B4,,E4,,3h[8:9],
,,,,,,,,1,
8,7,6q8[8:3],,4h[4:1],,,4>1[8:1],
,,4<7[8:1],,,{4}4-8[8:1],
{2}4/5h[8:1],6h[8:1]/4>2[8:1],
7h[8:1]/3-5[8:1],8h[8:1]/2>5[8:1],
1h[8:1]/6-8[8:1],2h[8:1]/5-1[8:1],
3h[8:1]/4-2[8:1],4h[8:1]/1<7[8:1],
{8}6-8[8:1]/5-1[8:1],6/5,,,3-1[8:1]/4-8[8:1],3/4,,,6-4[8:1]/7-3[8:1],
6/7,,,2-4[8:1]/1-5[8:1],2/1,,,8-4[8:1]/7-3[8:1],
7/8,,,1/2,2h[4:1]/1h[4:1],,,A3,
E5,A6,Ch[8:5],,,8,8,
{4}7h[2:1],B1/E1/E2,5h[2:1],B6/E6,
4h[2:1],E4,2h[4:1],3-6[8:1],
{2}3h[8:3],{4}8h[4:1],{8}5,{16}7/3,6/2,
{4}1h[4:1]/5pp6[4:1],{8}5,2,,3/4,4/5,5/6,
7,5/3h[8:1],4h[8:1],1,{16}2<7[8:1],4,3,4,{4}2,
{8}4/6h[8:1],5h[8:1],8h[8:1],4,{16}7>2[8:1],5,6,5,{4}7,
{8}7/1,6/2,3/5,2/8,3/7,6/4,1,{16}5,1,
{4}5h[8:3],{8}1,1w5[8:1],,1,,,5/3,
{16}8-4[8:1],1,{8}7h[8:1],8,6,5h[8:1],{16}7,7,{8}2-4[8:1],
1-5[8:1],2-6[8:1],1-7[8:1],A2,A1,2,3,4,
7/5,{16}6,5,{8}7h[8:1],{16}3,2,{8}4h[8:1],5,1/8,7,
2/6,{16}5,3,{8}4-8[8:1],1/7,{2}4h[4:1],
{8}6/4,{16}7,5,{8}8h[8:1],1h[8:1],{16}4,4,2,2,6,5,{8}7-5[8:1],
8-4[8:1],7-3[8:1],8-2[8:1],A7,A8,5,6,7,
8/4-1[8:1],7-4[8:1],4,7,2-5[8:1],6-3[8:1],2,6,
{4}2-6[8:1],2b/1b-5[8:1],1b/8b-4[8:1],8b/7b-3[8:1],
{16}7b/8,1,{8}2h[4:1],4,1,{16}8,1,7<4[8:1],5,8,1,{8}7b,
,3,{16}2>5[8:1],1,{8}3,{4}7/2-6[8:1],{8}2,7b,
{16}8/5h[8:1],7,{8}6,{16}1/4h[8:1],2,{8}3,{16}7/1h[8:1],6,{8}5-7[8:1],2/4,5b-1[8:1],
,3/5,2b-6b[8:1],8,{4}2b/6h[4:1],{8}1,1,
7<4[8:1],8,1/7,2<7[8:1],3,4/2,5>2[8:1],6b,
5/7,{16}8,7,{8}6h[8:1],{16}3-1[8:1],4,{8}5,3<6[8:1],7,3/8bqq4b[8:3],
,,,3,{4}2x-5[8:1],2/5,
4>1[8:1]/8<5[8:1],8b-3[8:1]/4b-7[8:1],8b-4[8:1]/4b-8[8:1],4b/8b,
2>5[8:1],{8}1/2,7V51[8:1],,7/2-4[8:1],,7-3[8:1]/2<7[8:1],
,7/2,,5h[8:1],{4}1>4[8:1],{32}8b/1b,7,6,5,,,,,{4}1/8-4[8:1],
{8}1/8,3V15[4:1],{32},,,4,{8}3,,7<5[8:1],
,8/7,1,{16}3-1[8:1],4,,,{8}3<6[8:1],{16}7,7,{8}3,
,1,{4}8-4[8:1],{8}2/8<5[8:1],{16}3,3,{8}8,4,
2V48[4:1],5-1[8:1],2,5,{32},,,,,,,,D2/D8,A2/A7,D3/D7,A3/A6,,,,,{4}5/4h[8:1],
6/4h[8:1],{8}7/5,8,5/7,3,
{4}1-3[8:1]/5-7[8:1],1b-7[8:1]/5b-3[8:1],1bv4[8:1]/5bv8[8:1],1b/5b,
7V51[4:1],{8}4/7,2-4-8[4:1],,2/4,{4}6-2[8:1],
{8}6/2,3h[4:1],{16},,4,2,5-2[8:1],1,6,8,{4}5b<8[8:1],
5/3V15[4:1],{8}3/6,4-8-6[4:1],,1/4,{4}2>4[8:1],
{8}2-6[8:1],{16}7,6,{8}5/2-8[8:1],{16}8,7,{8}2-4[8:1],6,4/2b,8,
{16}1/2h[16:3],,,3h[16:3],,,{8}4h[8:1],{16}5h[16:3],,,6h[16:3],,,{8}7h[8:1],
8-4[8:1],4-8[8:1],1,2,{16}3,,,1,{8}8,2,
7/E1f,7,7,7,3/E5f,3,3,3,
4x/2x,1,8,4x,5,3/7,2>5[8:1],1,
2/8,1>4[8:1],8,1/7h[8:1],{16},,5,5,{8}7<4[8:1],8,
7/1,8<5[8:1],1,8/2h[8:1],,,7/1>4[8:1],8,
1/7,8-4[8:1],1,8/2h[8:1],,1,{16}6,3,5,4,
{4}8x,8x,8x,8x,
{32}1bx/6h[8:1],2,3,4,,,,,{8}5,{32}8bx/3h[8:1],7,6,5,,,,,{8}4,2,8,
{32}1bx/6h[8:1],2,3,4,,,,,{8}5,{32}8bx/3h[8:1],7,6,5,,,,,{8}4,2,1,
{32}7bx/8h[8:1],6,5,4,,,,,,,,,8b/1h[8:1],7,6,5,,,,,{16}2,4,3,4,{8}2,
{2}1-5[8:1]/5-1[8:1],3-7[8:1]/7-3[8:1],
{4}6,{16}3,4,{8}5h[8:1]/2h[8:1],,E2,E1,E8,
{4}3,{16}6,5,{8}4h[4:1]/7h[8:1],,E8,E1,E2,
{4}2h[8:1]/4h[8:1],{8}2/4,1-5[8:1]/5-1[8:1],,1/5,,,6-4[8:1],
2-8[8:1],6-8[8:1],2-4>8[8:3],6,2,,7,
{4}7h[8:3],{8}5,5h[4:1],,4,3,2,
{16}5/6h[16:3],,,7h[16:3],,,{8}8h[8:1],{16}1h[16:3],,,2h[16:3],,,{8}3,
{16}8/1h[8:1],7,6,5,{8}4,{16}2/1h[8:1],3,4,5,{8}6,{16}8,7,8,7,
{8}1/6,2/5,3/4,8,{16}3-6[8:1]/7-2[8:1],2/6,1/5,8/4,{4}7s3[8:1],
E
