&title=lastendconductor
&artist=zts
&first=0.025
&des=其四,令魔女回归永远之安眠。
&lv_5=14
&inote_5=(139)
{1},
{1}5h[1:3],,4h[1:1],
{8},3/6,2/7,
{16}1,8,1,8,1-5[8:1],,
{8}8,8,8h[1:1],,,6,5,4,3,2,1,,
{8},2,2,
{24}4,3,5,
{8}4,6,6<3[4:1],6,6h[4:1],,,
{8}6V85[4:1],6,5V71[4:1],5,,,
{8}2,2/1,
{24}2,3,4,
{8}5,6,6h[4:1],,,
{16}6,4,
{8}6-2[8:1],6,3-5[8:1],3,3/7-3[8:1],,7/1-7[8:1],,6/1,6,5,4,3>6[4:1],3,3h[4:1],,
{8},
{24}5,6,4,
{8}5,3,3-5[8:1],,3/7-3[8:1],,7/1-7[8:1],,6/1,,
{8}5h[1:1],,,7,8,1,2,3,4,,
{8},3,3,
{24}1,2,8,
{8}1,7,7<2[4:1],7,7h[4:1],,,
{8}7V58[4:1],7,8V64[4:1],8,,,
{8}3,3/4,
{24}3,2,1,
{8}8,7,7h[4:1],,,
{16}7,1,
{8}7-3[8:1],7,2-8[8:1],2,2/6-2[8:1],,6/4-6[8:1],,7/4,7,8,1,2>7[4:1],2,2h[4:1],,
{8},
{24}8,7,1,
{8}8,2,2-8[8:1],,2/6-2[8:1],,6/4-6[8:1],,7-3[8:1]/4,,7b/3b,
{8},,4V25[4:1],4,5V38[2:1],5,6,7-3[8:1],,7,,6-1[8:1]/2-6[8:1],,6/2,,3b/7b,,,
{16}5,4,{8}5V74[4:1],5,4V61[8:3],3,2-6[8:1],,2,,3-8[8:1]/7-3[8:1],,3/7,,6b/2b,,,
{16}7,1,
{8}7V58[4:1],7,8V27[8:3],8,3-6[8:1],,3,,
{4}7-2[8:1]/6-3[8:1],7/6,1b/8b,
{8},1/8,3/6,,,
{16}2,8,
{8}2-6[8:1],2,1-5[8:1],1,8-4[8:1],8,7-3[8:1],7,2b/7b,
{8},,
{16}5,4,{8}5V74[4:1],5,4V61[8:3],3,2-6[8:1],,2,,3-8[8:1]/7-3[8:1],,3/7,,6b/2b,,,
{8}1/6,3/8,,,2/5,4/7,
{24}4/7,3/6,2/5,
{8}1/4,7/8,2/5,,
{8}3-8[8:1]/7-4[8:1],2/6,3<7[8:1]/7>3[8:1],,3b/7b,,,
{24}1/8,2/7,3/6,
{8}4h[8:1]/5h[8:1],,3/6,,
{8}7-5[8:1],7,8-4[8:1],8,1-5[8:1],1,2-6[8:1],,2b/6b,,,,6<3[4:1],,6b/3b,,
{4},
{8}6h[384:1],5h[384:1],4h[384:1],3>5[1:1],3h[1:1],,
{1},
{8}3h[384:1],,3h[384:1],4h[384:1],5h[384:1],6h[384:1],3h[384:1],4h[384:1],5h[384:1],
{8},6b,,,3h[384:1],3h[384:1],4h[384:1],5h[384:1],6h[384:1],,
{8}3h[384:1],4h[384:1],5h[384:1],6<4[1:1],6h[2:1],,,,,,,5b,,
{8}5h[384:1],,5h[384:1],6h[384:1],4h[384:1],3h[384:1],
{8}2h[384:1]/7h[384:1],,4h[384:1]/5h[384:1],,4h[384:1]/5h[384:1],3h[384:1]/6h[384:1],2h[384:1]/7h[384:1],1h[2:1]/8h[2:1],,,,,
{8}7h[384:1],8h[384:1],1h[384:1],2>8[1:1],2h[1:1],,
{1},
{8}2h[384:1],,2h[384:1],1h[384:1],8h[384:1],7h[384:1],2h[384:1],1h[384:1],8h[384:1],
{8},7b,,,2h[384:1],2h[384:1],1h[384:1],8h[384:1],7h[384:1],,
{8}2h[384:1],1h[384:1],8h[384:1],7<1[1:1],7h[2:1],,,,,,,8b,,
{8}8h[384:1],,8h[384:1],7h[384:1],1h[384:1],2h[384:1],
{8}3h[384:1]/6h[384:1],,1h[384:1]/8h[384:1],,1h[384:1]/8h[384:1],2h[384:1]/7h[384:1],3h[384:1]/6h[384:1],4>5[2:1]/5<4[2:1],
{1},
{8}2,
{4}2>6[4:1],6<2[4:1],2>6[4:1],6<2[4:1],2>6[4:1],6<2[4:1],2V46[4:1],6V82[4:1],2V46[4:1],6V82[4:1],2V46[4:1],6V82[4:1],2V46[4:1],6,
{8}7,7,7,
{8}7,
{4}7<3[4:1],3>7[4:1],7<3[4:1],3>7[4:1],7<3[4:1],3>7[4:1],7V53[4:1],3V17[4:1],7V53[4:1],3V17[4:1],7V53[4:1],3V17[4:1],7V53[4:1],3,
{8}2,2,2,
{8}
{8}2>6[4:1],2,6<2[4:1],6,2>6[4:1],2,6<2[4:1],6,2>6[4:1],2,6<2[4:1],6,2V46[4:1],2,6V82[4:1],6,2V46[4:1],2,6V82[4:1],6,2V46[4:1],2,6V82[4:1],6,2V46[4:1],2,6,6,
{8}7,7,7,7,
{8}7<3[4:1],7,3>7[4:1],3,7<3[4:1],7,3>7[4:1],3,7<3[4:1],7,3>7[4:1],3,7V53[4:1],7,3V17[4:1],3,7V53[4:1],7,3V17[4:1],3,7V53[4:1],7,3V17[4:1],3,7V53[4:1],7,3V17[4:1],3,7V53[4:1],7,3V17[4:1],3,7V53[4:1],7,3,3,2,2,
(34.75)
{32}1-5[64:1]/8-4[64:1],1/8,1h[8:1]/8h[8:1],,,,,,
(139)
{8}1b/8b,,
{16}3,4,3,4,2,6,2,6,3,7,3,7,2,8,2,8,3,5,3,5,4,6,4,6,3,4,3,4,2,8,2,8,1,7,1,7,4,6,4,6,2,5,2,5,3,7,3,7,4,5,4,5,3,6,3,6,4,5,3,6,4,5,3,6,
{16}2,1,2,1,3,7,3,7,2,6,2,6,3,5,3,5,2,8,2,8,1,7,1,7,2,1,2,1,3,5,3,5,4,6,4,6,1,7,1,7,3,8,3,8,2,6,2,6,1,8,1,8,2,7,2,7,1,8,2,7,1,8,2,7,
{16}4,5,4,5,3,7,3,7,4,8,4,8,3,1,3,1,4,6,4,6,5,7,5,7,4,5,4,5,3,1,3,1,2,8,2,8,5,7,5,7,3,6,3,6,4,8,4,8,5,6,5,6,4,7,4,7,5,6,4,7,5,6,4,7,
{16}1,8,1,8,2,6,2,6,1,5,1,5,2,4,2,4,1,7,1,7,8,6,8,6,1,8,1,8,2,4,2,4,3,5,3,5,8,6,8,6,2,7,2,7,1,5,1,5,8,7,8,7,1,6,1,6,8,7,1,6,8,7,1,6,
{16}1,1,3,3,5,5,7,7,
{32}1,2,3,4,1,2,3,4,1,2,3,4,1,2,3,4,
{16}8,8,6,6,4,4,2,2,
{32}8,7,6,5,8,7,6,5,8,7,6,5,8,7,6,5,
{16}2,2,4,4,6,6,8,8,
{32}2,3,4,5,2,3,4,5,2,3,4,5,2,3,4,5,
{16}7,7,5,5,3,3,1,1,
{32}7,6,5,4,7,6,5,4,7,6,5,4,7,6,5,4,
{16}8,8,2,2,4,4,6,6,
{32}8,1,2,3,8,1,2,3,8,1,2,3,8,1,2,3,
{16}1,1,7,7,5,5,3,3,
{32}1,8,7,6,1,8,7,6,1,8,7,6,1,8,7,6,
{16}4,4,2,2,8,8,6,6,
{32}4,3,2,1,4,3,2,1,4,3,2,1,4,3,2,1,
{16}5,5,7,7,1,1,3,3,
{32}5,6,7,8,5,6,7,8,5,6,7,8,5,6,7,8,
{16}1,1,3,3,5,5,7,7,
{32}1,2,3,4,1,2,3,4,1,2,3,4,1,2,3,4,
{16}8,8,6,6,4,4,2,2,
{32}8,7,6,5,8,7,6,5,8,7,6,5,8,7,6,5,
{16}2,2,4,4,6,6,8,8,
{32}2,3,4,5,2,3,4,5,2,3,4,5,2,3,4,5,
{16}7,7,5,5,3,3,1,1,
{32}7,6,5,4,7,6,5,4,7,6,5,4,7,6,5,4,
{16}8,8,2,2,4,4,6,6,
{32}8,1,2,3,8,1,2,3,8,1,2,3,8,1,2,3,
{16}1,1,7,7,5,5,3,3,
{32}1,8,7,6,1,8,7,6,1,8,7,6,1,8,7,6,
{1}1h[1:1]/5h[1:1],
{4},,
{32}1/5,2/6,3/7,4/8,5,6,7,8,1-5[16:1]*-5[16:1]/5,2/6,3/7,4/8,5,6,7,8,1q3[1:2]/5q7[1:2],
{4},
{1},,E
