&title=人を気取る
&artist=花譜
&first=0.81
&des_1=BHunterB
&des_2=BHunterB
&des_3=BHunterB
&des_4=BHunterB
&des_5=BHunterB
&lv_5=13+
&des_6=BHunterB
&des_7=BHunterB
&des=BHunterB
&inote_5=(187)
{1},
{8}3-8[8:1],,5,,6-1[8:1],4,4,,
{8}3-8[8:1],,5,,6-1[8:1],4,4,,
{8}3,,25,,3,4,25,,
{8}6,,47,,6,5,74,,
{8}2-5[8:1],2,,7h[8:2],,1,2,3,
{8}7-4[8:1],7,,2h[8:2],,7,6,5,
{16}2,,2,3,4,,4,,7,,7,6,5,,5,,
{16}4,3,2,,25,,37,,1-3[8:1],,7-4[8:1],,1,,7,,
{16}2,,3,4,2-5[8:1],,2,,,,6,,7,,8,,
{16}74,,6,5,7-4[8:1],,7,,,,3,,2,,1,,
{8}2-5[8:1]/6,2,8-4[8:1],8,3-8[8:1],,6,7h[8:2],
{8}1,2h[8:2],6,5h[8:2],,4,37,16,
{16}25,,3,4,1>4[8:1],,1,,,,6,,7,,8,,
{16}74,,6,5,8<5[8:1],,8,,,,4,,3,,2,,
{16}7,,7,6,5,,5,,2,,2,3,4,,4,,
{16}5,6,7,,7,,63,,5/2h[8:2],,,,,,,,
{8}6h[8:2],,,6h[8:5],,,,,
{8}4h[8:2],,,4h[8:5],,,,,
{8}5h[8:2],,,5h[8:5],,,,,
{8}3h[8:2],,,3h[8:5],,,,,
{8}7h[8:2],,,7h[8:5],,,,,
{8}1h[8:2],,,1h[8:5],,,,,
{8}8h[8:2],,,8h[8:5],,,,,
{8}2h[8:2],,,6,3-8[8:1],5,5b,,
{8}6-1[8:1],,4,,3-8[8:1],3,5,,
{8}6-1[8:1],,4,,3-8[8:1],3,5,,
{8}7-4[8:1],,1,,2-5[8:1],2,8,,
{8}7-4[8:1],,1,,2-5[8:1],2,8,,
{8}8-4[8:1],,8/7,,5-2[8:1],6,7,,
{8}1-5[8:1],,1/2,,4-7[8:1],3,2,,
{8}5-1[8:1]/4-8[8:1],,54,,2,3,4/8,7,
{8}6,5/1,2,3,8-5[8:1]/4-1[8:1],,8/4,,
{8}7-5[8:1]/3,,7-4[8:1]/3,,7-3[8:1]/2,,7/1,,
{8}2-4[8:1]/6,,2-5[8:1]/6,,2-6[8:1]/7,,2/8,,
{8}8-6[8:1]/4,,8-5[8:1]/4,,8-4[8:1]/3,,8/2,,
{8}1-3[8:1]/5,,1-4[8:1]/6,,1w5[8:1]/7,,1,,
{8}3-5[8:1]/7,,7/3-6[8:1],,8/3-7[8:1],,38,,
{8}8-6[8:1]/4,,4/8-5[8:1],,3/8-4[8:1],,28,,
{8}2h[8:1],5h[8:1],3h[8:1],7h[8:1],1h[8:1],8h[8:1],2,3b/7b,
{8},E4/6b,B7/2b,,,,,,
{8}6-8[8:1]/5-1[8:1],,5b/6b,,6-8[8:1]/5-1[8:1],,5b/6b,,
{8}6-8[8:1]/5-1[8:1],,5b/6b,,6-2[8:1]/5-1[8:1],,5b/6b,,
{8}1x-5[8:1]/8x-4[8:1],,1b/8b,,2-5[8:1],,8-4[8:1],,
{8}1<5[8:2],,5>1[8:2],,1,,5,,
{8}4-8[8:1]/3-1[8:1],,4b/3b,,1x-5[8:1]/2-4[8:1],,1b/2b,,
{8}5x-1[8:1]/6-8[8:1],,5b/6b,,7-3[8:1]/8x-4[8:1],,7b/8b,,
{8}4x-8[8:1]/5x-1[8:1],,4b/5b,,7-4[8:1],1,7,2-5[8:1],
{8}8,2,7V58[8:2],1,7,2,1-4[8:1]*-5[8:1],,
{8}1-7[8:1],,1,2-5[8:1],,8<4[8:2],,4>6[8:3],
{8},,1x,,2,3,4w8[8:1],,
{8}4,,2/6-1[8:1],3,4qq5[8:4],,4,7>1[8:1],
{8},7,,,(165){64},(187){8}6/B3,,B7/2-8[8:1],(93.8){16},(187)
{8}6-1[8:1],7,3-5[8:1],2,7-4[8:1],8,1-5[8:1],2,
{8}6-1[8:1],7,3,4<8[8:2],,8>3q4[8:6],,{16},7hx[16:9],
{8},,,,,,,1,
{8},42,75,43,6-1[8:1]/5-1[8:1],,65,,
{8}7x<4[8:4],,3,,3,,3,,
{8}2>5[8:4],,7,,8b,,7,,
{8}6pp4[8:6],,1,,2,,3,,
{8}2qq4[8:6],,4,,5x,,6x,,
{8}7xqq6[8:4],,3,,3,,3,,
{8}5/2h[8:2],,5,,3/7h[8:2],,3,,
{8}6/1>4[8:4],,6,,6,,6,,
{8}63,,74,{16}6,5,6-1[8:1],,,,4/A6,,,,
{8}2-5[8:1],2,8,8,7-4[8:1],7,1b,,
{8}3-8[8:1],3,5,5,6-1[8:1],6,4b,,
{8}2-5[8:1],8,2,7,8-4[8:1],1,2b,,
{8}5-1[8:1],3,5,2,8-4[8:1],7,6b,,
{8}1-5[8:1],7,1,6,4-8[8:1],3,2b,,
{8}7-3[8:1],1,7,2,4-8[8:1],5,6b,,
{8}2-6[8:1],,2/5h[8:2],,{32}7x,8x,1x,2x,3x,4x,5x,6x,7x,8x,1x,2x,3x,4x/7x,,,
{8},6/3b,5b/2,4/1b,,,,,
{8},,,,,,,,
{8},,,,,,,,
{8},,,,,,,,
{8},,,,,,,,
{8},,,,,,,,
{8},,,,,,,,
{8},,,,,,,,
{8},,,,,,,,
{8}3h[8:2],,E6/B6,,,4,6h[8:2],,
{8}3h[8:2],,B6/E6,,,4,6h[8:2],,
{8}2h[8:2],,B7/E8,,,1,7h[8:2],,
{8}2h[8:2],,B7/E8,,,1,27,,
{8}7,7,3,3,6,6,2,2,
{8}15,15,26,26,37,37,4-8[8:1]/8-4[8:1],4>5[8:11]/8,
{8},,,,,,,,
{8},,,,4-8[8:1],,4,,
{8}5<8b[8:1]/4>1[8:1],,5b/4b/E5f,,5-8b[8:1]/4-1[8:1],,5b/4b/E5f,,
{8}5-1b[8:1]/4-8[8:1],,5b/4b/E5f,,5-2b[8:1]/4-7[8:1],,5b/4b/E5f,,
{8}1xb-5[8:1]/8xb-4[8:1],,1b/8b,,3h[16:4]/6h[8:2],,,57,
{8},24,56,34,1>3[8:1]/5<7[8:1],,1/5,,
{8}1x-4b[8:1]/5x-8[8:1],,1b/5b/B6f,,1>4[8:1]/5<8b[8:1],,1b/5b/A2f,,
{8}2-5b[8:1]/6-1[8:1],,2b/6b/B7f,,2>5[8:1]/6<1b[8:1],,2b/6b/E4f,,
{8}2w6[8:1],,2b,,8h[8:3]/4,3,2,1h[8:4],
{8},8,6,4,{16}1-5[8:1]/5,26,73,48,1,,,,
{8}2>5[8:1],,2,8-6[8:1]*-4b[8:1],,8w4[8:1],,8,
{8},6,3>8[8:1]/7,,7,6,5-8b[8:1],4,
{8}1b>4[8:1]*<6[8:1],,1b-5-3-8[8:3],,1,8>5b[8:2],7,6-1[8:1],
{8},A6f,3xb,,2-5[8:1],,2/8-4[8:1],,
{8}8/3-8[8:1],,3/6-2[8:1],,6/4w8[8:1],,B1`B7`B8`E1`E8,,
{8}2x>5[8:1],,8-4[8:1],,1q5[8:1],,7p4[16:6],,
{8}3h[8:3],,,,8b/1b,,,8,
{8},75,42,65,4-8[8:1]/3-8[8:1],,43,,
{16}2x,,3,4,2-5[8:1],,2,,1,,8,,7,,6,,
{16}74,,6,5,7-4[8:1],,7,,8,,1,,2,,3,,
{8}2-5[8:1]/6,2,8-4[8:1],8,1h[8:2],,5,7,
{8}1-5[8:1],7-4[8:1],1,7,,3,25,63,
{16}7,,6,5,8<5[8:1],,8,,4,,3,,2,,1,,
{16}25,,3,4,1>4[8:1],,1,,5,,6,,7,,8<5[8:1],,
{16}3,,3,2,1>4[8:1],,1,,6,,6,7,8<5[8:1],,8,,
{16}3,2,1,,16,,37,,8-5[8:1]/1-4[8:1],,,,1x>8[8:30]/8x,,,,
{8},,,,,,,,
{8},,,,,,,,
{8},,,,,,,,
{8},,,,,,,,
{8}3/5hbx[8:2],,3,,3/7h[8:2],,3,,
{8}6/4h[8:2],,6,,6/2h[8:2],,6,,
{8}64,,3,3,5,5,2,2,
{8}18,27,36,45,3b/6b,8b-5[8:1]/1b-4[8:1],7b/2b,8b/1b,
{8},,,,
E
