&title=Nacreous Snowmelt
&artist=Camellia
&first=0
&des=Frozen fate - Beneath the Snow -
&clock_count=4
&lv_5=14+
&inote_5=(201){1},,
{16}E4,,,,,,,,,,,,,,E5,,
{16},,,,,,,,,,,E6,,,,,
{16}2,,3,,4,,5h[1:1],,E7,,,,,,,,
{16},,,,,,E8,,,,,,,,,,
{16}4,,5,,6,,7h[8:5],,,,,,,,,,
{16}E2,,,,,,,,,,,,,,E3,,
{16}3x,,4,,5,,6h[16:5],,,,,E4,,,,,
{16},,,,,,,,E5,,,,,,,,
{16}7,,8,,1,,2h[16:13]/E6,,,,,,,,,,
{16},,,Chf[16:13],,,,,,,,,,,,,
{8}2,3,4,5h[4:3],,D8/E8,,D1/E1,
{8},D2/E2,,3,4,3,5,4,
{8}6,5,4,3h[4:3],,D2/E2,,D1/E1,
{8},D8/E8,,6,5,6,7,8,
{8}2,1,8,7h[4:3],,A8/B8,,A1/B1,
{8},A2/B2,,3,3,5,4,6,
{8}7,8,1,2h[4:3],,A4/B4,,A5/B5,
{8},A6/B6,,3,3,1,2,8,
{8}1,8,7,6h[4:1],,5h[4:1],,4h[4:1],
{8},3h[4:1],,2,3,4,5,6,
{8}2,1,8,7h[4:1],,8h[4:1],,1h[4:1],
{8},2h[4:1],,4,3,5,4,4,
{8}7,6,5,4h[4:1],,2h[4:1],,8h[4:1],
{8},6h[4:1],,{24}B2,B3,E4,{8}7,5,6,6,
{8}2,3,4,5h[4:1],,3h[4:1],,Chf[8:5],
{8},,,,B1/B2/B3/B4/B5/B6/B7/B8,,,,
{8}1xh[8:3]/7x,,,5-7[8:1],5,8-4[8:1],,3/8,
{16},,,,E3,E2,E1,E8,E7,E6,E5,D4,D3,D2,A1f/D1/E1/5xh[8:5],,
{8},,,,2,2-4[8:1]/5-1[8:1],,2z6b[8:3]/5,
{4},,A4/A5/E5,A1/A8/E1,
{8}2x/7x,,{24}E3,B3,B4,{8}E5,8,5-1[8:1]/8-6[8:1],,5/8,
{8},2,2,,3/4,,5/6,4x/7x,
{8},B6/E6,B2/E2,B8/E8,B4/E4,1-4[8:1]*-6[8:1],,1b,
{8},5,3,4x/6xh[4:1],,2,2-5[8:1]/6-1[8:1],,
{8}2x/6x,,,4-2[8:1],4,1-5[8:1],,6/1,
{16},,,,E7,E8,E1,E2,E3,E4,E5,D6,D7,D8,A8f/D1/E1/4xh[8:5],,
{8},,,,7,7-5[8:1]/4-8[8:1],,7s3b[8:3]/4,
{4},A5/A4/E5,A8/A1/E1,C/B2/B3/B6/B7,
{8}1x/5x,,{24}D2,A2,D3,A3,D4,A4,{8}7-1[8:1],2-6[8:1],7,2,
{8},5,5,,3/4,,1/6,4bpp3>7b[2:3]/8bpp7<3[2:3],
{1},,
{2}Chf[2:3],,,B1/B3/B5/B7,
{4}6/2h[8:1],5/2h[8:1],4/3h[8:1],{8}2/3,4,
7x/3x,7,4/7h[8:1],,5/6h[8:1],,6/7,5,
6x/2xh[8:1],,2h[8:1],5,3h[8:1],7,2h[8:1],1,
2pp5[8:5],,1h[8:1],,8h[8:1],,7h[8:1],,
6/4,6,3,3,5,5,2,2,
4/3,4,5,5,6,6,3,3,
{16}7,8,7,8,6,1,5,2,4,3,4,3,{8}C,E5,
E1,{16}E7,B6,B5,,{16}E2,E1,E8,E7,E6,E5,{24}1xw5b[8:1],8x,7x,6x,,,
{8}1b/Cf,,7/3V15[4:1],,6,7-4-8[4:1],,
7,,3,2-4<5[8:1],1v4[8:1],{4}2-8-3b[4:1],,
5-8b[8:1],1-5-2[4:1],{8}7-3-5[4:1],7,,8V61[4:1],,,
4,4,5,6,{4}7-5[8:1]*-4[8:1],
7b-1[8:1]*-2[8:1],7b-3-5[4:1],{8},1-6-2[4:1],,1/6,,
5,6-8[8:1],7,4z8[4:1]/6-4[8:1],,,,
7,6,{4}3h[4:1]/5h[8:1],{8}6,6h[4:1]/4h[8:1],,2,
2h[4:1]/4h[8:1],,7,5h[8:1]/7-4-8[4:1],,2,2,,
7b/1b-5[8:1],,1<6b[8:1],B8/B7,1,4-7[8:1],3,2,,
8/1>6b[4:1],,B1/B2,7v4[8:1],7v2[8:1],,,8-5[8:1]*-3[8:1],,
8,B4/B3,,7<4[8:1]/4x>1[8:1],,7/4,,
8,7V53b[4:1],B6/B5,3-8[8:1]*-7[8:1],,,,
{8}1/6,1/6,{4}3b/4bv6[8:1],4v2[8:1],4v7[8:1],
4v1[8:1],4-8[8:1],4w8b[8:1],,
{1}6>3[4:1]/2qq6[2:1],
{16}7,5,7,5,6,,2,1,3,8,4,7,5,6,4,5,
2b,,8,,7/3,,6,5,6,,3,,7/3,,8,1,
8,,2,6,2,,7,4,6-1[8:1],3,{8}5,6/4,2,
8b/3b,,6/2,{16}3,4,3,4,3,,6,5,{8}6,
1-5[8:1],2/8,7-4[8:1],8,{16}4,3,2,1,5,6,7,8,
{8}1b/3b,,6/2,{16}3,4,3,,6,5,7,,3,4,
2,4,3,4,1,,8,5,6,5,7,5,6,,3>8[8:1],4,
{8}3,5-1-6[4:1],,7,7V13[4:1],,5,5-7-3[4:1],,
4,{4}4-8[8:1],8w4[8:1],C,
6b/2b,{16}8/1,,3,5,4,6,5,,3/7,,5,4,
6,,3,4,2,,8,1,{8}7,5-1[8:1],4/6,,
8b,,7/2,{16}3,4,3,2,3,,6,5,6,5,
7/4,,1,8,{8}7/2,4/3h[8:1],5,3/4h[8:1],2,5/3h[8:1],
7b-1[8:1],4h[8:1],7-5[8:1],3h[8:1],7-3[8:1],2h[8:1],7,1h[8:1],
4,4/8h[8:1],5,5/1h[8:1],6,6/2h[8:1],7,7/3,
6/5,5/6,5/4,5/4,4/3,3/4,2/3,2/3,
{16}1,4,8,5,7,6,8,5,{2}1w5[8:1],
{8}2/8,3,4,3-1[8:1],B6/E6/E7,3x/8-4[8:1],,7/8,
{8},7h[8:1]/3,3,2^5[8:1],6x^1[8:1],2z6[16:3]b,,,
{8},7,8,7-5[8:1],B2/E2/E3,7x/4-8[8:1],,3/4,
{8},1/7,1-5-1[4:1]/7,,7-3[8:1]b,,,,
{8}7/1,6,5,6-8[8:1],B3/E4/E3,6x/1-5[8:1],,2/1,
{8},2h[8:1]/6,6,7^4[8:1],3x^8[8:1],7s3[16:3]b,,,
{8},2,1,2-4[8:1],B7/E8/E7,2x/5-1[8:1],,6/5,
{8},7/8,1/6-1[8:1],,6/2-5[8:1],,,,
{8}B7/B6/Ch[4:1]/B2/B3,,,,,8w4[8:1],,8x,
{8},7h[8:1],6h[8:1],5h[8:1],{16}3-7[8:1],3,{8}4z8[16:3]b,3x,,
{8},2,{16}2,6,1^4[8:1],5,8,,1-5[8:1]*-6[8:1],,,,,,
{8},3/7,3^8^3[4:1]b/7,,5-1[8:1],,,,
{8}2h[8:1]/8h[4:1],,{16}3,7,4-8[8:1],6,5,,8xw4[8:1],,,,,,
{8},2h[8:1],3h[8:1],4h[8:1],6-2[8:1],5h[8:1],,8bp2p4p6p8[2:7]b,
{1},,,,
{8}7b,7,6,{32}6/D3,A2,D2,A1,{8}5,5,4,{32}4/D1,A8,D8,A7,
{8}3,3,2,{32}2/D7,A6,D6,A5,{8}1,1,8,{32}8/D5,A4,D4,A3,
{16}7,1,7,1,6,2,6,2,5,3,5,3,{32}A4/B4,A3,A2,A1,A8,A7,A6,A5,
{8}1h,2h,3h[8:1],,5h[8:1],,{24}1w5[8:1]b/7x,6x,5x,4x,3x,2x,
(100.5)
{16}1bx-5-3[8:1]*-5-7[8:1],,2/8,,1^3[16:1],,,1,
{32}1,,5,4h,5,4h,6,6,8,7h,1,7h,2,7h,3,7h,
{16}4bx^1[16:1]/6bx^1[16:1],,,5,4/6,,,1,
{32}3-7[16:1]/7,,5,4h,5<3[8:1]b,4h,6,6,3,,,,,,,,
{16}E1/B8f/E8,,B6/B5/E6f/B2/B3/E3,,{64}C/A1,D2,A2,D3,A3,D4,A4,D5,{16}A5/8h[16:1],,
{64}A2,E3,E4,,A8,E8,E7,,A1,B1,C,,,,,,E7,E6,A5,,E2,E3,A3,,C,B4,A4,,,,,,
{32}1,2,3,4,5h[16:1]/7h[16:1],,,,1/8,,2h[16:1]/4h[16:1],,,,6,5,
{32}7<8[16:3]b/4h[16:1],,,2h[16:1]/5h[16:1],,,1/8,,,,,,6,5,4,3,
{16}2/8bx-4^6[8:1]*-4^2[8:1],,7/1,,8-6[16:1],,,8,
{32}8,,4,5h,4,5h,3,3,1,2h,8,2h,7,2h,6,2h,
{16}5bx^8[16:1]/3bx^8[16:1],,,4,5/3,,,8,
{32}6z2[32:3]/2,,4,5h,4-2-8-6[8:1]b,5h,3,3,6,,,,,,,,
{16}E1/B1f/E2,,B3/B4/E4f/B7/B6/E7,,{64}C/A8,D8,A7,D7,A6,D6,A5,D5,{16}A4/1h[16:1],,
{64}A7,E7,E6,,A1,E2,E3,,A8,B8,C,,,,,,E3,E4,A4,,E8,E7,A6,,C,B5,A5,,,,,,
{2}4-8[2:1],
{24},,,,,,2^5[16:1]b,2,8,1,1,7,
{24}2b,,,8,8,2,B6/B5,,3,4,,2/4,
{24},,6,6x/5,,7,8-4[16:1]/7x,1,2,3/8,7,6,
{24}5^2[16:1]/8b,,,1^6[16:1],,,5-8[16:1],,,1-5[16:1],,,
{24}5-2[16:1],,,,,,,,,1h[12:1],,8,
{24}E7/B6f/B5/E6/B7/B1,,,A8/E3/B3f/B4/E4/B2,,,7/1,,6,5-1^4[16:3],,7/4,
{24},,6,6x/5,,8,8xh[8:3],,,6,,,
{48}7,6,5,4,3,2,1h[8:1],,,7,6,5,4b,,,2h[8:1],,,,,,5,6,7,
{12}8h[24:1]/2h[24:1],7h[24:1]/1h[24:1],6h[24:1]/8h[24:1],{32}7x-4[16:1]b/5h[8:1],,,,7,8,1,2,
{24}7b/3,,,1,1,7,B3/B4,,6,5,,7/5,
{24},,3,4x,,2,1xv6[16:1],3h,5h,8h,6h,4h,
{24}1b^7-3[32:3]b,,,2,,,4^5-7[16:1],,,4-8[16:1],,,
{24}4^3-1[16:1],,,,,,,,,8h[12:1],,1,
{24}E3/B3f/B4/E4/B2/B8,,,A1/E7/B6f/B5/E6/B7,,,2/8,,3,4-8^7-5[16:3],,2/5,
{24},,3,3x/4,,1,1xh[8:1],,,Ch[8:1],,,
{12}2x,1x/3x,4xh[24:1]/8xh[24:1],7x,8x/6x,5xh[24:1]/1xh[24:1],4xw8[16:1],5x/3x,2xh[24:1]/6xh[24:1],4b,,,
(198){8}6,5,4,3<6[8:9],,,,,(191){1},(184){8}6,5,4,3<4<6[8:9],,,,,
(177){2},(174){2},(170){8}6,5,4,3<4<5<6[8:9],
(168){4},,(165){2},(156){2},(155){8}6,5,4,3<6b[8:9],
(151){32},,,,,,,,,,,,B3,E3,,,(145){32},,,,,,,,,,,,E5,B4,,,(143){16},,,,,,,,
(139)
{16}4/6h[4:3],,,,4,,,,4,,,,4,,,,
{16}5/6h[4:1],,,,5,,,,5/6h[4:1],,,,5,,,,
{16}5/3h[4:3],,,,5,,,,5,,,,5,,,,
{16}4/3,,3,3,4,,6,6,5,6,5,7,
{32}E5,B4,B3,E3,E1,B8,B7,E7,
{16}1bx,,5,,5h[8:1]/B2f,,3,3,4,4,3,,
{32}E5,E6,E7,E8,,,,,
{16}8b,,2x,3,4h[8:1]/B7f,,6,6,5,5,6,,
{32}E5,E4,E3,E2,,,,,
{16}1,8,1,8,2,7,2,7,3,6,3,6,4,5,4,5,
{24}3b,6,3,6,3,6,2b,7,2,7,2,7,1b,8,1,8,1,8,1b>4b[8:1]/8bx<5b[8:1],,,,,,
{16}1/8,,,,3x/5x,3,3,3,3/7x,3,3,3,3/6x,3,3,3,
{16}6,6,6,6,4,4,4,4,7,7,7,7,1,1,1,1,
{16}8,8,8,8,2x/8,8,8,8,4,4,4,4,7,7,7,7,
{16}3,3,3,3,3-5[8:1]/5x,3,3,3,6-8[8:1],6,6,6,4/6,,,,
{16}8/1,,,,6x/4x,6,6,6,6/2x,6,6,6,6/3x,6,6,6,
{16}3,3,3,3,5,5,5,5,2,2,2,2,8,8,8,8,
{16}1,1,1,1,7x/1,1,1,1,5,5,5,5,2,2,2,2,
{16}2b,4,3h[16:3],,,5h[16:3],,,4,6,5-1[8:1],7,,,5b,,
{16}8h[8:1],,,,1/7,1,1,1,2/6,2,2,2,2/4,2,2,2,
{16}3/7,3,3,3,3/5,3,3,3,{24}3/8,7,6,5-1[8:1]/4,3,2,1/5,,,3,,,
{16}2,2,,,2/8,8,8,8,3/7,7,7,7,5/7,7,7,7,
{32}2/6,,5,3,5h[8:1],,,,
{16}4,,4,4xh[8:1],7-3b[8:1],,,,1bv4V26[4:3]/7b,,,,
{16}5h[8:1],,,5h[8:1],,,6h[8:1],,,7h[8:1],,,8v5V73[4:3],,6,,
{16}4h[8:1],,,4h[8:1],,,3h[8:1],,,2h[8:1],,,1<3>3[4:3],,C,,
{16}E1,E8,E7,E6,E5,E4,E3,E2,E1,,,,8x,7,6,5,
{16}3,4,2,,,2/5,,,7,4/6,,8-4[8:1],,,,,
{16}3-6[8:1],,2,,3/7>2[8:1],,8,,7<4[8:1],,3,3,7,,2,,
{16}1-5[8:1]/7,,2,,1/7-5>4[8:1],,8,,2/7-1>2[8:1],,3,3,7-3[8:1],,4,,
{16}1/7,,2,,2/4xh[8:1],,3,,6,5,7,,1/8<6[8:1],,1,,
{16}2/8-5[8:1],,3,3,8-4[8:1],,4,,8w4[8:1],,2,2,8,,,,
{16}6-3[8:1],,7,,6bx/2bx<7[8:1],,1,,2>5[8:1],,6,6,2,,7,,
{16}8-4[8:1]/2,,7,,8/2-4<5[8:1],,1,,7/2-8<7[8:1],,6,6,2-6[8:1],,5,,
{16}8/2,,7,,7/5xh[8:1],,6,,3,4,2,,8/1>3[8:1],,8,,
{16}7/1-4[8:1],,6,6,1-5[8:1],,5,,1w5[8:1],,7,7,1,,,,
{16}3/5-1[8:1],,1,,3/5,,2,3,4-8[8:1],,7-3[8:1],7,4,,7,,
{16}1s5[4:1]*z5[4:1],,,,,,,,,,,,3b/7b,,,,
{16}6/4-8[8:1],,8,,6/4,,7,6,5-1[8:1],,2-6[8:1],2,5,,2,,
{16}8z4[4:1]*s4[4:1],,,,,,,,,,,,6b/2b,,,,
{16}3h[4:3]/5,,,,5,,,,5,,,,5,,6,,
{16}6h[2:1]/4,,,,4,,,,4,5,5,3,,4h[16:1],3,,
{24}2,4,2,4,2,4,3,5,3,5,3,5,4,6,4,6,4,6,5,7,5,7,5,7,
{32}5b,6,7,8,1,2,3,4,5b,6,7,8,1,2,3,4,5b,6,7,8,1,2,3,4,5b/Cf,,,,,,,,
{32}1/8bh[8:1],2,3,,,,,,8bh[8:1]/7,6,5,,,,,,
{32}1/8bh[8:1],2,3,,,,,,8bh[8:1]/7,6,5,,,,,,
{32}1/8bh[8:1],2,3,,,,,,8bh[8:1]/7,6,5,,,,,,
{32}1/8bh[8:1],2,3,,,,,,Ch[8:1],,,,,,,,
{16}6,,5/7,,5>2[8:1]/7,,,,5/8<5[8:1],,,,1/8,,,,
{32}2/4,,,,3,4,3,4,3-6-4-8[4:1],,,,,,,,,,,,,,,,,,,,7x,,,,
{32}8/1bh[8:1],7,6,,,,,,1bh[8:1]/2,3,4,,,,,,
{32}8/1bh[8:1],7,6,,,,,,2b/5b,,,,1b/7b,,,,
{32}6b/5b,,,,1b/8b,,,,3b>8b[8:1]/4b<7b[8:1],,,,,,,,
{32}3b/4b,,,,,,,,Ch[8:1],,,,,,,,
{16}8x,,8x,,5b/7b,,,2b,2b/1b,,3b/4b,,5b>2b[8:1]/6b,,,,
{16}5b/7b,,7bh[8:1],,,7bh[8:1]/1bh[8:1],,,2bh[8:1]/8bh[8:1],,,1bh[8:1]/3bh[8:1],,,,,
(141){32}3b<3<2b[2:15],B3/E3/E4,Cf/B5/B1,E6/E7/E8/E1,,,,,,,,,,,,,
(145){32},,,,,E7,,,,,,,,,,,
(151){32},,,,,,,,E8,,,,,,,,
(156){32},,,,,,,,,,,,,E1,,,
(157){32}4,,,,3,,,,2,,,,1,,,,
(164){32},,E2,,,,,,,,,,,,,,,,,,,,,,E3,,,,,,,,
(172){32},,,,,,,,,,,,,,E4,,
(173){32},,,,7,,,,6,,,,5,,,,
(180){32},,,,,,E5,,,,,,,,,,
(182){32},,,,,,,,,,,,,,E6,,
(185){32},,,,,,,,,,,,,,,,
(183){32}1,,,,2,,E7,,3,,,,4,,,,
(198){32},,,,,,,,,,,,7x,,,,E8,,,,,,,,,,,,3x,,,,
(206){32},,,,,,,,,,,,E1,,,,
(201)
{32},,,,,,,,,,,,,,,,
{32},,,,,,E2,,,,,,,,,,,,,,,,,,,,,,,,,,
{8}Ch[2:1],,,,{8}3h[8:3],4,5,6h[4:3],,8,,1,
{8},2h[2:1],,7,6,5,4,3,
{8}5h[8:3],4,3,2h[4:3],,1,,8,
{8},7h[2:1],,1,2,3,4,5,
{8}4h[8:3],5,6,7h[4:3],,1,,2,
{8},3h[2:1],,7,6,5,4,3,
{8}4h[8:3],3,2,1h[2:1],,7,,6<4[2:1],
{8},,,,Cf,,,,
{8}5b/2bh[4:1],,,7^5[8:1],3,7/4q8[8:1],,1^4[8:1]/4,
{8},7/1,6,5,{16}A4/B4,A3/B3,A2/B2,A1/B1,A8/B8,A7/B7,A6/B6/E6f/4xV68[4:1],,
{8},4/1,2,3^1[8:1],,3/8q4[8:1],,5/8,
{8},6/5,6-4-7[4:1],4,3v1[8:1]b,,,,
{8}8bh[4:1]/2b,,,2^4[8:1],7,2/5p1[8:1],,8^5[8:1]/5,
{8},2/8,3,4,{16}A5/B5,A6/B6,A7/B7,A8/B8,A1/B1,A2/B2,A3/B3/E4f/5xV31[4:1],,
{8},5/8,7,6^8[8:1],,6/1p5[8:1],,4/1,
{8},3/4,5/2,6/1V75[4:1]*V35[4:1],,,,,
{8}B5/Cf/B1,,4/8,5^3[8:1]/1,,2q6[8:1]/5,,7h[4:1]/2,,
{16}8,1,2,3,8,7,6,5,4,3,2,1,8b/4b,,
{8},2h[8:1],{16}4,3,5^8[8:1],2,4,,1-5[8:1]*-6[8:1]/5,,,,1,,
{8},3/4,3-5[8:1],5-2[8:1],6v8[8:1]b,,,,
{8}7b/3b,,5/1,4^6[8:1]/8,,7p3[8:1]/4,,2h[4:1]/7,,
{16}1,8,7,6,1,2,3,4,5,6,7,8,1b/5b,,
{8},2/4,2-4[8:1]/4-8[8:1],,2-6[8:1]/4,,7-5[8:1]/2,,
{8}7-1[8:1]/4,,7/2,,3,4/2,5/1-5[8:1],,
{8}1/7h[4:1],,{16}4,3,2,1,8/6-2[8:1],,,,6/3-5[8:1],,,,
{8}1/3-1[8:1],8,3/7-3[8:1],,7-5[8:1]/8-4[8:1],,7/8,,
{16}3b,,2-8[8:1],4,3,,2,,6b,,7-1[8:1],5,6,,7,,
{16}2b,,3-5[8:1],1,2,,3,,7b,,6-4[8:1],8,7,,6,,
{24}1b,2,3,5,6,7,1b,2,3,5,6,7,4b,3,2,8,7,6,4b,3,2,8,7,6,
{4}5bqq4[4:1]/1bqq8[4:1],,,{16}1x,2,3,4,
{16}5b-1[8:1]/6b,,7,7,5,,6,,2-6[8:1],5,3,4,2,,7b-4b[8:1],,
{16},,{24}7/5^8[8:1],4,3,{16}2,,1/5,,2-4[8:1],,3,,2/1x,8,7,6,
{16}5b-1[8:1],,3,3,5,,2,,7-3[8:1],8,6,1,7,,4b^1b[8:1],,
{16},,{24}8/4,7,6,{8}5-8[8:1],4,1-5[8:1]/5,2,1b,,
{16}4b-8[8:1]/3b,,2,2,4,,3,,7-3[8:1],4,6,5,7,,2b-5b[8:1],,
{16},,{24}2/4^1[8:1],5,6,{16}7,,4/8,,7-5[8:1],,6,,7/8x,1,2,3,
{16}4b-8[8:1],,6,6,4,,7,,2,1,3,8,4,7,5bh[4:1],,
{16},,{24}8b,7,6,{16}5h[8:1],,{24}2b,3,4,{16}5h[4:1],,,,{24}6,7,8,1,2,3,
{16}4-8[8:1]/1,,,,3-6b[32:3],,,,7x-2b[268#8:1],,,5x-2b[268#8:1]*-8b[268#8:1],,,B5f/E5/E6,,
{16},,{24}1x,2x,3x,{16}4xh[8:1],,{24}7x,6x,5x,{16}4xh[4:1],,,,{24}3,2,1,8,7,6,
{16}5-1[8:1]/8,,,,6-3b[32:3],,,,2x-7b[268#8:1],,,4x-7b[268#8:1]*-1b[268#8:1],,,B4f/E5/E4,,
{16},,8,,8w4b[8:1],,,,8,,,,6/2,,,,
{16}5b/4b,,3,4,,4,3,,6,5,7,5,6,,4b,,
{16}3/8b-4[8:1],,{24}2x,3,4,{16}8b^5[8:1],,{24}1x,2,3,{16}8b-3[8:1],,2x,,8b/4bx>5b[1:1],,,,
{16}5h[2:1],,,,,,,,,,,,,,,,
{16}4,,3,4,{12}2h[12:1],8h[12:1],1h[12:1],{16}7bh[16:3],,,3bh[16:3],,,{24}5b,6,7,
{16}8b-2[8:1],,4,4,8,,3-7[8:1],,7-4[8:1],,3,,6,,5b^8b[8:1],,
{16}1-5[8:1],,5,,1,,7x,,6^3[8:1],,3,,2-6[8:1]/6,,,,
{16}2b^5[8:1],,8,8,2,,7-3[8:1],,3-6[8:1],,7,,2,,1b-5b[8:1],,
{16}5-1[8:1],,1,,6b<2[4:1],,,,{24}2<6[4:1],3,4,{16}5h[8:1],,,,,,
{16}3b-7[8:1],,5,5,3,,6-4[8:1],,4-8[8:1],,6,,3,,2b-7b[8:1],,
{16}7-3[8:1],,2,,5b-1[8:1],,,,5/4,,,,8,7,6,5,
{16}4b-8[8:1]/3b,,2,2,4^7[8:1],,1-5[8:1],,4,,1,,8,,7bh[4:1]/4b,,
{16},,{24}3b,2,1,{16}8h[8:1],,{24}5b,6,7,{16}8h[4:1],,,,2,,,,
{16}1,1,1,1,2b-5[8:1]/8b,,,,5-3^8b[4:1]/2,,6,,7,,8b-4[8:1],,
{16},,5,,6v3[8:1],,,,6/2,,,,4/2,5,6,7,
{16}8,8,8,8,7b-4[8:1]/1b,,,,4-6^1b[4:1]/7,,3,,2,,1b-5[8:1],,
{16},,4,,3v6[8:1],,,,7/3,,,,5/7,4,3,2,
{16}6b/1b,,6,1,6,,6/2,3,6b/4b,,6,4,6,,6/4,,
{16}3b/5b,,3/4,5,3/6b,,3/1,8,3/7b,,3,4,2,,1bh[8:13]/5b<4b[8:11],,
{1},
{4},,,Cf/B7/B3,
{8}1b-5[8:1],2,1/6-1[8:1],7,3,3-5[8:1]*-7[8:1],,3,
,6xV82V86[2:1],,65,,4,4,3,
{8}4-8[8:1],3,4/7-4[8:1],6,2,2-4[8:1]*-6[8:1],,2,
,7x<3<7[2:1],,78,,1,1,2,
{8}1b-3-5-7[4:1],,,,8b>6[4:1],,,,
B2/E3/E2,,{16}6,5,6,5,7,4,7,4,8,3,8,3,
{8}8b-6-4-2[4:1],,,,1b<3[4:1],,,,
B7/E7/E8,,{16}3,4,3,4,2,5,2,5,1h[8:1],,,,
{16}7,8,7,8,{8}7-4[8:1],1,72,2-5[8:1]*-6[8:1],,2,
,4x-6-2-5[2:1],,46,,8,8,7,
{8}6-2[8:1],53,62,1-5[8:1],7,7-4[8:1]*-3[8:1],,7,
,2x-6-3-8[2:1],,82,E8,E7,E6,E5,
{8}4xb<2[4:1],,,,5b-7-1-3[4:1],,,,
E1/B8/A8,,{16}3,7,3,7,4,6,4,6,5,5,5,5,
{8}5xb>7[4:1],,,,4b-2-8-6[4:1],,,,
{8}2-6[8:1],,28,,75,6/4-7[8:1],53,2-5[8:1],
,2/8-4[8:1],,8/2<7[8:1],,2,,6,
{8}6/4>7[8:1],,B6/B5,,5<2[8:1],E4,B3/E3,,
4>7[8:1],,C,,5w1[8:1],64,5,,
{8}7-3[8:1],,71,,24,3/5-2[8:1],46,7-4[8:1],
,7/1-5[8:1],,1/7>2[8:1],,7,,3,
35,35,6,6,75,75,4,4,
13,13,8,8,17,17,2,2,
{16}1,5,1,5,2,6,2,6,3,7,3,7,4,8,4,8,
{8}5h[4:3],1,1h[8:1],,1,1h[8:1],,,
{32}84,73,62,,,,,,{16}1-3[12:1],,5,5,1-7[12:1],,4,4,1>4[8:1],,6,6,
{8}1-5[8:1],7-4[8:1],1,7,3-5[12:1]*-1[12:1],3,3,,
{32}C,,,,,,,,{16}8-6[12:1],,4,4,8-2[12:1],,5,5,8<5[8:1],,3,3,
{8}8p4[8:1],2v5[8:1],8,2,6h[4:1],,B2/B3/E3,,
{32}1-6[8:1]/5-2[8:1],26,37,,,,,,{16}1/5,,,,7-1[12:1],,3,3,7-5[12:1],,4-8[8:1],,
7,,4,,7,,61,,24,24,,65,65,,,,
{8}4>3-1[8:1],5,6,7,8<7-5[8:1],1,2,3,
4-2[8:1],8-6[8:1],4-8[8:1],8w4[4:1],,,,,
{16}7-3[8:1]/1,,6,5,7,,4,,46,,6,5,6,,6,3,6,,6,1,6,,6,7,6,,65,,6h[4:1]/5,,,,
{32}A5/E5/D5,A4,D4,A3,D3,A2,,,{16}71,,3,4,2,,6,5,7,,18,,
{32}1b,D2,A2,D3,A3,,7b,D7,A6,D6,A5,,1b,E2,B2,B3,E4,,7b,E7,B6,B5,E5,,Cf,,,,,,,,
{16}6,5,6,,7/4-8[8:1],,,,42,,2,,2>5[8:1]*<7[8:1],,,,
2-6[8:1],,,,26,,,,8,7,6,5,2,3,4,5,
{24}1,8,7,6,5,4,1b,2,3,4,5,6,7,8,1,2/6b,5,4,3,2,1,8,7,6,5/1b,2,3,4,5,6,7,8,1,2/6bh[8:3],,,,,,,,,C,,,,,,
{1}1xw5[2:7],,
{1},,
{8}3,4,5,6h[4:1],,5h[4:1],,4h[4:1],
{8},3h[4:1],,2,3,4,5,6,
{8}2,1,8,7h[4:1],,8h[4:1],,1h[4:1],
{8},2h[4:1],,4,3,5,4,6,
{8}3,4,5,6h[4:3],,D8/E8,,D1/E1,
{8},D2/E2,,3,4,3,6,5,
{8}6,5,4,3h[4:3],,A1/B1,,A8/B8,
{8},A7/B7,,5,6,4,5,3,
{8}7,8,1,2h[4:1],,3h[4:1],,4h[4:1],
{8},5h[4:1],,{24}B2,B3,E4,{8}7,5,6,5,
{8}7,8,1,2h[4:1],,4h[4:1],,Ch[16:9],
{16},,,,,,,E8,,,,,,,,,
{16}2,,3,,4h[128:1],,5h[16:13],,,,,,,,,,
{16},,,E1,,,,,,,,,,,,,
{16}7/E2,,6,,5,,4h[16:7],,,,,,,E3,,,
{16},,,,,,,,,,,E4,,,,,
{2},Cf/5b-7-4-8[4:27]*s1b[4:29],
{1},,,,,,,
{8},
