&title=時間旅行
&artist=安佐里 「レイトン教授と最後の時間旅行」
&first=0.01
&des=Tail_R
&lv_5=12+
&inote_5=(140)
{1},,
{8}3q8^1q6b[2:3]/6,,,,,,,,
{8},,,,,,,,
{8}7pp7v2[2:3]/2,,,,,,,,
{8},,,,,,,,
{8}4v3^2-6[16:9]/6v7^8-4[16:9],,,,,,,,
(147)
{4}A1,E8,B2,B6,
(141)
{4}B3,E6,E4,A5,
{8}4qq5[2:1],,,,,,6,,
(148)
{1}6bv3v6[2:3]/5b,
{8}2-6[2:1],,,,,,,,
{1}3v6v3[2:3]/4,
{8}7-3[2:1],,,,,,,,
{1}6p3[2:3]/5,
{8}4V63[2:1],,,,,,,,
{1}3q6[2:3]/4,
{8}5V36[2:1],,,,,,,,
(146)
{8}3h[4:1],,4h[4:1],,5-1[4:1],,,,
{8}6h[4:1],,5h[4:1],,4-7[4:1],,,,
{8}3v4-6[2:1],,,,7h[2:1],,,,
{8}5qq2[2:1],,8^5[4:1],,,,,,
(148)
{8}7h[4:1],,5h[4:1],,4V68[4:1],,,,
{8}2h[4:1],,4h[4:1],,5V37[4:1],,,,
{8}8<3[8:3],,,3>5[8:3],,,5pp1[4:3],,
(145)
{8}3bV51[2:1],,,,,,,,
{8}2>6[8:3],,,6v3[4:1],,,7,,
{8}8<3[8:3],,,3v6[4:1],,,2,,
{8}1>4[4:1],,4^7[4:1],,7^2[4:1],,2>2[4:3],,
{1}8v3[2:1],
(146)
{8}3qq4[16:5]/4,,5,,7qq8[16:5],,1,,
{8}2h[4:1],,8,3/7,4V28[4:1]/6,,8V64[4:1],,
{8}4qq8[2:1]*pp8[2:1],,,,,,,,
(148)
{8}6bqq3[2:3]/5bx,,2,2,,1,1x,,
{8}8v3[2:1],,,,,,,,
{8}3pp6[2:3]/4,,7,7,,8,8,,
{8}1v6[2:1],,,,,,,,
{8}1pp5[2:3]/5,,6,6,,7,7,,
{8}8v5[2:1],,,,,,,,
{8}8qq4[2:3]/5,,4,4,,3,3,,
{8}2v4[2:1],,,,,,,,
(145)
{8}3/4^7[4:1],,7^2[4:1],,2,,3,3,
{8}4^1[4:1]/5,,1^6[4:1],,6,,5,5,
{8}3^6[4:1]/4,,2,2,3q7[4:1],,1,1,
{8}3V52[8:3],,5-1[8:1],,,,3/8,3/8,
{8}7^2[4:1]/4,,2-6[4:1],,6,,4,4,
{8}5^8[4:1]/3,,8-4[4:1],,4,,3,3,
(148)
{8}2/4V61[4:1],,3,3<7[4:1],,1,1qq5[8:3]*pp5[8:3],,
(136)
{8}1b,,,,
(149)
{8}3/7,,1/5,,
(146)
{8}7qq8[8:3]/3,,4,3,2-5[8:1]*-4[8:1],,,,
{8}3qq4[8:3],,8,7,6-1[8:1]*-2[8:1],,,,
{8}8qq8[8:3],,1,2,3-6[8:1]*-5[8:1],,,,
{8}4xV25[4:1]/5x,,8,7,6V84[4:1],,3,2,
{8}1-4[8:1],,1-6[8:1],,4-1[8:1],,4-7[8:1],,
(143)
{8}1-4[8:1],,1-6b[8:1]*-5[8:1],,1,,6/5,,
{8}7-3[8:1]/1,,3,4^1[8:1],
(150)
{8},1,8v3[8:1],,
{8}1b/8b<1[64:149],,,,
(144)
{1}4bV63-7-2-8[4:7],
{1},
{4},1/8,
(147)
{8}3^5[32:3]/5,,3^8b[8:1]/8^5[8:1],,3/8,,{16}1/6,,3/4,,
{8}2/8^2[8:1],,8^5[8:1]/5^2b[8:1],,8/5,,1/4,3/6,
{8}8-5[8:1]/5,,6,4,1-4b[8:1]/5,,3,5,
{8}8-5[8:1],5,4-1b[8:1]*-7[8:1],,4,,1/7,,
{8}6^4[32:3]/4,,6^1b[8:1]/1^4[8:1],,6/1,,{16}8/3,,6/5,,
{8}7/1^7[8:1],,1^4[8:1]/4^7b[8:1],,1/4,,8/5,6/3,
(150)
{8}1/4-7[8:1],,6,8,2-6b[8:1]/1,,5,7,
{8}1-5[8:1],4,2^7b[8:1]*^5[8:1],,2,,7/5,,
(147)
{8}2-5[8:1]/1,,2-7b[8:1]/8-3[8:1],,2/8,,4/6,2/1,
(144)
{8}7-4[8:1]/8,,7-2b[8:1]/1-6[8:1],,7/1,,3/5,7/8,
(150)
{8}1/2b^5[8:1],,8/2,8b-4[8:1],,5/8,5bqq7[4:11],,
{1}4bqq8[4:10],
{1},
(137)
{16},,,,,,,,,,,,,,,,
(145)
{8}1-6[4:1]/8,,2,,3-8[4:1],,4,,
{8}5-2[4:1],,6,,7-4[4:1],,8,,
{8}1h[4:1],,4,2/3,3/4,4/5,5/6,6/7,
(150)
{8}7/8h[4:1],,5,7/6,
(155)
{8}5/6,4/5,3/4,2/3,
(153)
{8}1h[4:1]/2,,4-7[8:1],5,4/3,,1-5[8:1],8,
(140)
{8}1/2,,3-6[8:1],4/5,3,,7-3[8:1]*-4[8:1],,
(150)
{8}7,,6/5,6,1/2,1,6/5,6,
(145)
{16}1xb>5[8:3]/2,,,,,,5bx^8[16:5],,,,,8bxqq5[32:35],,,,2xbv5v2[32:57],
{1},
(149)
{1},
{1}1b,
&inote_6=
