&title=Cosmic Magic Shooter[DX]
&artist=SOUND HOLIC feat. Nana Takahashi
&first=0
&lv_5=14
&des=Cosmic
&inote_5=
(163){4},,,,3/5h[4:5],
2-6[8:1],2,{8}6,6,
,4,{4}4,{2}1<4[8:1],
{4}1h[4:5],3-8[8:1],3,{8}8,8,
,2,{4}2,{2}7s3[8:1]/2z6[8:1],
{4}7xh[4:5],5-8[8:1],5,{8}8,8,
,6,{4}6,{2}8s4[8:1],
{4}2xh[4:5],4-1[8:1],4,{8}1,1,
,3,{4}3,{2}8bx-5b[8:1]/4bxp5b[8:1],
{8}8/3,2,1/6,3,2/5,4,7/4,7/4,
,5/3,5/3,4,7/B2,8,{4}2/B7,
{8}8/3,2,1/6,3,2/5,5,7/4,7/4,
,5/3,5/3,4,2/C,1,{4}7/C,
{8}4/7,6,5/2,7,6/1,1,3/8,3/8,
,1/7,1/7,4,6/B3,5,{4}3/B6,
{8}5/2,3,4/7,6,3/8,2,6/1,6/1,
,8/2,8/2,1,{2}Cfh[4:1],
{8}1-5[16:1],2/8,1,6,6,3/6,1,4/2,
1,4/6,1,3/6,1,2,3,4,
8-4[16:1],7/1,8,3,3,6/3,8,5/7,
8,5/3,8,6/3,8,7,6,5,
5/3,5/3,6/2,2/6,5/3,5/3,{16}6/2,5/1,8/4,7/3,
{4}6bxh[2:1]/2bxh[2:1],,,1w5[4:3],
,,,,3-8[16:1]/7-4[16:1],
7/3,{32}8/4,1/5,6-3[8:1]/2-7[8:1],3/7,,,,,,,,,,,,,{4}4/1-5[16:1],
{8}1,4,1,2,1,{32}1,2,3,4,
{8}8,3,6,{16}5,4-1[8:1],5,,,4,,,,8v5[16:1]/1v4[16:1],
,,,8/1,,,{8}6/3,3/5,5/3,{16},,6,5,
{8}6,{16}5,4,{8}5,{16}3,4,{8}3,{16}3,2,{4}3,
5/8-4[16:1],{8}8,5,8,7,8,{32}8,7,6,5,
{8}1,6,3,{16}4,5-8[8:1]*-2[8:1],4,,,5,,,,2qq7[2:1],
,,,,,,,,{2}B8f/B1f,
{16}5,6,7,8,1,2,{8}3b/6b,,8/1,{4}5/4,
8-4[16:1]/5-1[16:1],5/8,{8}1/4,6/7,,8p4[16:1]/1q5[16:1],
,8/1,,7/2,5/4,1/8,{4}2-6[8:1],
1-5[8:1],8-4[8:1],7-3[8:1],7,
{16},3,2,1,8,7,6,5,4x/8x,3,2,1,{4}4x/8x,
{2}4pp4[8:1]*qq4[8:1],{4}5-3[8:1]/2-6[8:1],5x/2x,
7pp3b[2:1],{8}6,5,4,4,,,1>4[4:1],
1,4<8[4:1],4,8-4[4:1],8,4,Cf,
{16},,,,5,4,7,2,5,4,8,1,{4}7bx/2bx,
2/7<5[8:1],7/2-4[8:1],2/7-5[16:1],7/4-8[16:1],
4/6-1[16:1],6/3>8[8:1],3/7-4[16:1],7/2,
5<8[8:1]/1>4[8:1],1p5[8:1]/5p1[8:1],1>4[8:1]/5<8[8:1],5/1,
7-5[16:1]/1-3[16:1],1/7b-3b[8:1]*>3b[8:1],7bx,5/1,
5/1x-7[16:1],5/1x-3[16:1],5/1x-7[16:1],1x/5,
7<4[8:1]/8>3[8:1],8-4[8:1]/7-3[8:1],8>3[8:1]/7<4[8:1],8/7,
{8}Cf,,,6bx/3bx,{2}5bx/4bx,
{32}1/5bh,2,3,4,5,6,7,8,1/5bh,2,3,4,5,6,7,8,1/5bh,2,3,4,5,6,7,8,{4}1/5bh,
{8}5h[8:1],3h[8:1],2h[4:1],6h[8:1],{16},1/5,8/4,7/3,{8}6/2,5v2[8:1]/4v7[8:1],
{16},,,,,,,,8,1,2,3,4,5,6,7,
{4}8/5,8>5[4:1]/5p8[4:1],{16},,,,,,,,5x/8bx,
1,2,3,7bx,8,1,2,6bx,7,8,1,{4}5bx,
{8}8h[8:1],2h[8:1],3h[4:1],7h[8:1],{16},4/8,5/1,6/2,{8}7/3,5-8[16:1],
,5,{16}4,3,2,1-6[16:1]*-4[16:1],,,,1b,,,,,{8}4/5bxh[4:3],
3,2,1,8,7,6,{16}5,4,
3,2,1,8,7/2,3,4,5,6,7,8,1,{4}2/7,
{8}4-7[16:1]/8-3[16:1],6/2,{4}8b/4b,{16}3/7,2/6,5-8[8:1]/1-4[8:1],8/4,,,{8}5/1,
{16},,8,1,5b,1,8,4,{8}3/6,6b/3b,,8b/2b,
{16}7bx,4,6b,3,5bx,8,4b,6,3bx,5,2b,7,4bx,5,1b,3,
7bx,8,3,6,{4}5bxw1b[8:1],5bx,7bh[8:1]/2bh[8:1],
{8}8h[8:1],2h[8:1],3h[4:1],7h[8:1],{16},4/8,5/1,6/2,{8}7/3,7/2,
8/4,6/2,{16}2,1,8,7-3[8:1],6,,,7,,,{8}8>1-3[8:1],
5,6,8<7-5[0.3681##0.1841],4,3,2,{16}2,3,4,5,
6,7,8,1,8bx/2bxh,{32}3,4,{8}5,{16}2bx/8bxh,{32}7,6,{8}5,{16}8bx/2bxh,{32}3,4,{8}5,
{4}8bxh/2bxw6b[8:1],{16}2b,B6/B5/C/B7,,,,,{8}4x,,5h[8:5],
1,2,3,4,4h[4:1],5,5,6b/3b,
{16}7,8,{8}7,{16}8,1,{8}8,{16}2,1,{8}2,{16}2,3,{8}2,
{16}6,5,7,3,4,2,6,5,7b,3,6,2,7b,1,{8}8,
8-5[16:1]/2-5[16:1],2/8,{4}8b/2b,{16}1x,6,5,6,1x,6,5,6,
2x,6,5,6,2x,6,5,6,{32}3x,4,5,6,7,8,1,2,8x/3x,7,6,5,4,3,2,1,
8x,7,{16}6b-1b[8:1]*-3b[8:1],,,,,,,,,{8}4h[8:1],2h[8:3],6h[4:1],
{32},,,,,,,,1/5,8/4,7/3,6/2,,,,,{8}2b/1bw5[16:1],6b/5bw1b[8:1],
E
