&title=Kikai No Tsubasa feat. 重音テト
&artist=かめりあ
&first=0.02
&des=翼が折れても まだ羽ばたけるのだから
&des_5=翼が折れても まだ羽ばたけるのだから
&lv_5=14+
&inote_5=(200){4},{16},,,,E8,E1,E2,E3,E4,E5,E6,E7,
{8}2h[8:3]/E8,,,4h[8:5],,,,,{1}6pp7<2[4:3],
{8}1h[8:3],,,5h[8:5],,,,,{1}3p2<7[4:3],
{8}4h[8:3],,,6h[8:5],,,,,{1}2v7-1>4[4:3],
{8}5h[8:3],,,7h[8:5],,,,,{1}4>6[4:3],
{24}E5,B4,B3,E3,{1},{4},,,{16},{64},{192},{32}2h[8:11],
5h[32:43],{1},{4},,,{16},,,{64}7h[1:1]/B4,
E5,{1},{4},,,{16},,,{32},4h[8:11],
6h[32:43],{1},{4},,,{16},,,{4}5/3,
{8}2,4h[8:5],,,,,1z5>2[4:3],
{16},,,,,,,,,,,,8x,7x,
{1}6xh[2:1],
{2}3h[4:1]/5h[4:1],{32}2,4h[32:7],{4},{16},,,{12}E4/5x<3[4:3],
B4,B5,E6,{1},{4},,{16},,{24},{16}B5/4x>6[4:3],
E5,{1},{4},{8},4,
4,5,6,
{2}7/3v8-2[0.6##0.6],7,
7v4-6[0.6##0.6],3,
1-5-3[0.6##0.6],{4}7,{16}E1,E8,E7,E6,
E5,E4,E3,E2,E1,E8,E7,E6,2x/E5,1x,8x,7x,6x,5x,4x,3x,
{2}2x/8-6v1[0.6##0.6],4,
4-2v5[0.6##0.6],8,
8-6v1[0.6##0.6],4,
4-2-6[0.6##0.6],8,
7-1-5[0.6##0.6],3,
2-4-8[0.6##0.6],6,
7-3-5[0.6##0.6],2,
8-2-4[0.6##0.6],{4}6,{16}E5,E6,E7,E8,
E1,E2,E3,E4,E5,E6,E7,E8,2x/E1,3x,4x,5x,6x,7x,8x,1x,
2x/E6,E5,E4,E3,E2,E1,E8,E7,4x/E6,3x,2x,1x,8x,7x,6x,5x,
4x/E1,E2,E3,E4,E5,E6,E7,E8,2x/E1,3x,4x,5x,6x,7x,8x,1x,
2x/E6,E5,E4,E3,E2,E1,E8,E7,4x/E6,3x,2x,1x,8x,7x,6x,5x,
{1}4x/1h[2:1],
{2}5/7h[4:1],3/4h[4:1],
{8}8/2h[2:1],,,,,3/7,{16},8/4,,,{2}5/1h[2:1],
{16}4,5,6,7,8,1,2,3,
{64}5$/4-2>3-1>2-8>1-7>8-6<7-5b[4:27],5?-7<6-8<7-1<8-2<1-3>2-4[0.2812##8.1],{1},,,,,,,{4},,,{16},,,{64},,{24}7b/1b,
6/2,5/3,4,,,,,,7b/1b,6/2,5/3,{2}4-7<5-2[8:5],
{8}8h[4:1],,,1h[8:3],{24},,,,,,,,,,,,2b/8b,
3/7,4/6,5,,,,,,2b/8b,3/7,4/6,{2}5-2>4-7[8:5],
{8}1h[4:1],,,8h[8:3],{24},,,,,,,,,,,,1b/5b,
2/6,3/7,4/8,,,,,,2b/6b,3/7,4/8,{2}1/5>2-6[8:5],
{8}8h[4:1],,,1h[8:3],{24},,,,,,,,,,,,8b/4b,
7/3,6/2,5/1,,,,,,7b/3b,6/2,5/1,{2}8/4-6-8-5[8:5],
{8}1h[4:1],,,3h[8:3],{24},,,,,,,,,,,,2b,
1,8,4/7,,,{8}4,{24}8b,1,2,{8}5/3,5,3,3,
5,5,4,4,6,6,5,5,
{24}7b,8,1,5/2,,,{8}5,{24}1b,8,7,{8}4/6,4,6,6,
4,4,5,5,3,3,4,4,
{16}1b,7,1,7,1,7,2b,8,2,8,2,8,3b,7,3,7,
3,7,4b,6,4,6,4,6,3b,5,3,5,3,5,2b,4,
{32}1,8,7,6,5,4,3,2,1bx,8,7,6,5,4,3,2,1,8,7,6,5bx,4,3,2,1,8,7,6,5,4,3,2,
1bx,8,7,6,5,4,3,2,1,8,7,6,5bx,4,3,2,1,8,7,6,5,4,3,2,1bx,8,7,6,5-7-1-3-6-8-2-4[8:23],4,3,2,
{1}1xh[1:1],
,2xh[1:1],
{16},,,,,,,,1,5,1,5,8,1,2,3,
{8}4/7h[8:3],{16},,,,5,6,7,8,1-6-4[4:1],2,{4}3-7[8:1],
{8}3b,{16},,,,1,5,2,4,3,6,5-8[8:1],7,{8}1,
5/3b,{24},,,,,,1b/2b,3,4,{4}5h[4:1],{8}2-7[8:1],8,
{2}2/6-4-8[4:1],{16}E3,E2,E1,E8,E7,E6,E5,E4,
{8}1h[8:3]/E3,{16},,,,4,3,2,1,8,7,6,5,4,3,
2/E5/B4,,,6/E1/B8,,,{8}4/E7/B6,{16},B2/E3/8q6[0.225##0.3],,,,,,,{4}1xh[8:1],
{24}8b/7b,6,5,4,,,,,,1b/2b,3,4,{4}5-3v1[8:3],
{8}8h[4:1],{32},,,,,,,,E1,E8,A7,E7,{8}E6,{16}2,4,2,4,2,4,
{2}1h[2:1],{24}5b,6/2,7/3,4/8h[8:3],,,,,,,,,{2}6-4[8:1],
{8}7h[16:1]/3h[16:1],3h[16:1]/7h[16:1],5h[16:1]/1h[16:1],5h[16:1]/1h[16:1],
8h[4:1]/4v7-5-3-8[0.45##0.6],,,1h[8:3],,,,,4,
4,3/7-5-1[4:1],6h[8:3],,,,8,
7,6,{24}5/2h[8:1],4,{12}3,{24}1,8,7,6,5,4/3,,,,,,1/6h[8:1],8,7,
,5,4,3,2,1,{4}8/7,{16}6,5,6,5,7,4,7,4,
{32}8,1,2,3,4,5,6,7,8,1,2,3,4,5,6,7,8/2,3,4,5,6,7,8,1,2,3,4,5,6,7,8,1,
{16}2/E7,E8,E1,E2,E3,E4,E5,E6,E7,E8,E1,E2,E3,E4,E5,E6,
{4}8h[2:1]/E7,,,1h[4:3],
7h[2:1],,,2h[4:1],
8h[4:1],3-1-5[2:1],{2}7h[2:1],
{4},,,6h[4:3],
4h[2:1],,,5h[4:3],
3h[2:1],,,2h[4:1],
4h[4:1],1-5-3[2:1],{2}8h[2:1],
{4},,7/3,{8}4,6,
{1}5v2[0.6##0.6],
6-8-4[0.6##0.6],
3>5[0.6##0.6],
{8}1,,,4,{2}3/5,
{1}7v4[0.6##0.6],
{8}3,,,,,4,{4}7h[4:1],
{16}5,,,4,,,{8}6,{16},5,,,3,,,2,
,,{8}4,5,6,{16}E2,E1,E8,E7,E6,E5,E4,E3,
{8}E2/8s4[0.6##0.6],,,7xh[8:3],,,,,6xz2[0.6##0.6]*z2[0.6##0.6],
,,5xh[8:3],,,,,4xz8b[0.6##0.6],
,,3xh[8:3],,,,,2xz6[0.6##0.6],
,,1xh[8:3],{4},,{64}8x<7<6>5>4>3>2b[0.6##7.2],
8?-6-4-2[0.5812##7.2],{1},,,,,,{4},,,{16},,,{32},6h[1:1]/E3,
B3,{1},{4},,,{16},,,{32}4h[1:1]/E7,
B6,{4},,,{16},,,{1}Cf,
{32}2h[1:1]/B5,E5,{1},{4},,,{16},,,{32}5h[1:1]/E3,
B3,{1},{4},{16},,,{2}4h[4:1]/6h[4:1],
{16}7h[1:1]/E5,B4,{1},{4},{8},{2}8h[4:1]/2h[4:1],
{16}3h[1:1]/E8,B7,,,,,,,,,,,E3,E4,E5,E6,
{1}E7,
8/1>2>3<4<5<6<7>8b[0.6##3.6],
,,,{16}1,
4,3,4,2,6,5-1[8:1],6,{8}4,3h[8:1],{16},,,,8,
5,6,5,7,3,4-8[8:1],3,{8}5,6h[8:1],{16},,,,1,
6,5,6,2,5,4-7[8:1],5,{8}3,2h[8:1],{16},,,,8,
3,4,3,7,4,5-2[8:1],4,{8}6,7h[8:1],{16},,,,3,
7,5,7,4,6,8-4[8:1],6,{8}1,2h[8:1],{16},,,,2,
5,4,5,1,6,5-8[8:1],6,{8}4,3h[8:1],{16},,,,6,
2,4,2,5,3,1-5[8:1],3,{8}8,7h[8:1],{16},,,,7,
4,5,4,8,3,4,3,{8}5,6h[8:1],{16}E5,E4,E3,E2,
7,8,6,1,8,2,7-2[8:1],8,{8}6,5h[8:1],{16},,,,3,
4,2,5,4,6,3-7[8:1],4,{8}2,1h[8:1],{16},,,,2,
1,3,8,1,7,2-7[8:1],1,{8}3,4h[8:1],{16},,,,6,
5,7,4,5,3,6-2[8:1],5,{8}7,8h[8:1],{16},,,,3,
6,4,5,2,6,5-1[8:1],7,{8}4,3h[8:1],{16},,,,6,
3,5,4,7,3,4-8[8:1],2,{8}5,6h[8:1],{16},,,,1,
7,5,6,2,8,4-7[8:1],5,{8}3,2h[8:1],,,1<3[4:1],
2,{4}1/7,{16}E8,E1,E2,E3,E4,E5,E6,E7,
1/E8,2,3,4,6,7,8,1,{4}5h[4:1],2-8[8:1],
4/2-6[8:1],2/7-5[8:1],7/4-8[8:1],4/2-5[8:1],
2/1-6[8:1],1/4-8[8:1],4/5-3[8:1],5/2-6[8:1],
2/1-7[8:1],1/5-2[8:1],6/5,{8}7h[8:1],1h[8:1],
{16}8,7,6,5,3,2,1,8,{4}4h[4:1],7-1[8:1],
5/7-3[8:1],7/2-4[8:1],2/5-1[8:1],5/7-4[8:1],
7/8-3[8:1],8/5-1[8:1],5/4-6[8:1],4/7-3[8:1],
7/8-2[8:1],8/4-7[8:1],3/4,{16}E2,E3,E4,E5,
{4}7-5[8:1],7/3-8[8:1],3/6-1[8:1],6/2-4[8:1],
2/8-3[8:1],8/1-6[8:1],1/7-4[8:1],7/2-6[8:1],
{8}1/2-4[8:1],8,{4}2/7-5[8:1],{8}8/7-3[8:1],1,{4}7/2-6[8:1],
{8}2-4[8:1],4-8[8:1],2,5,{16}6h[8:1],,,7h[8:1]/1h[8:1],,,{8}8/2,
{16}3,4,3,4,2,5,2,5,1-4[8:1],6,1,6,,,,,6,
5,6,5,7,4,7,4,8v5[8:1],3,8,3,,,,,3,
7,3,7,2,6,2,6,1v3[8:1],5,1,5,,,,,6,
2,6,2,7v6-4[8:3],3,7,3,{4},,{24}2b/1b,
3,4,5,,,,,,7b/8b,6,5,{4}4-8[8:1],3,
{16}2,1,2,1,3-5-1[4:1],8,3,8,,,,,,,,,7,
8,7,8,6,1,6,1,5,2,5,2,4,3,4,3,
6,5,6,5,7,4,7,4,E1,E2,E3,E4,E5,E6,E7,E8,
{24}2b/E1,3,4,5,,,,,,7b/8b,6,5,{4}4,1/5,
{16}2,4,3,5,4>1[8:1],6,5,7,,,,,{8}8,8,
{16}7,5,6,4,5<8[8:1],3,4,2,,,,,{8}1,1,
{16}2,6,3,7,4,8,{8}5h[16:3],{16},1,,,{4}7/3,
{24}2b/6b,3/7,4/8,5/1,,,,,,4b/8b,7/3,6/2,{4}1/5-1[8:1],{8}3,3,
{16}8,4,7,3,6-3[8:1],2,5,1,,,,,{8}2,2,
{16}1,5,2,6,3-6[8:1],7,4,8,,,,,{8}7,7,
{16}5,6,4,5,3h[8:1],,,7h[8:1]/1h[8:1],,,{8}6h[8:1]/5h[8:1],{16},4h[8:1]/3h[8:1],{48},,,,,,{24}8b/2b,
7,6,5,,,{8}1,{24}7b/1b,6,5,{4}4-8[8:1],{8}2,2,
{16}1,7,1,7,8v5[8:1],1,2,3,{4}8/4-7[8:1],{8}3,3,
{16}8,2,8,2,1v4[8:1],8,7,6,{4}1/5-2[8:1],{8}7-4[8:1],7-2[8:1],
,,5,5,{16}E1,E8,E7,E6,E5,E4,E3,E2,
{24}7b/E1,6,5,4,,,,,,2b/1b-5[8:1],3,4,{2}5<8[8:1],
{24}2b/1b,3,4,5,,,,,,7b/8b-4[8:1],6,5,{2}4-2-7[4:1],
{4}6,5xh[4:1],{8},6h[4:1]/4h[4:1],,,7h[4:1]/3h[4:1],
,,8h[4:1]/2h[4:1],{16},,,,1p8[1:7],1,1,1,
{1}1b>2>3<4<5<6<7>8b[4:27],
{2},,,,,,,,,,,,,5-1[8:1]/4-8[8:1],
{16}2,7,2,7,2,7,2,7,3,7,3,7,3,7,3,7,
4,6,4,6,4,6,4,6,5-1b[8:1],6,5,6,,,,,7,
2,7,2,7,2,7,2,6,2,6,2,6,2,6,2,
5,3,5,3,5,3,5,3,4-8b[8:1],3,4,3,{32},,,,,,,,2,
3,4,5,6,7,8,1,2,3,4,5,6,7,8,1,2,3,4,5,6,7,8,1,2,3,4,5,6,7,8,1,
2/6,5,4,3,2,1,8,7,6,5,4,3,2,1,8,7,6,5,4,3,2,1,8,7,6,5,4,3,2,1,8,7,
{1}3>1-5[2:1]/6<8-4[2:1],
{64}4$/5s1b[2:1],4?z8[0.2812##0.6],{4},,,{16},,,{32},{8}3b/7b,
{16}6,5,8-4[8:1],5,{8}6,{4}8/3h[4:1],{16}2,1,8,7,
{8}6/2,{16}3,5,4,5,{8}3h[8:1],{24}1,8,7,6h[8:1],,,2,1,8,7h[8:1],,,{8}5,
{16}3,4,2-4-8>3[8:3],5,{8}1,{4}2/8,{16}7,6,{8}5h[8:1],
{16}4,6,4,6,3,7,3,7,2,3,4,5,1,8,7,6,
{8}2/5,{16}3,4,1-5[8:1],4,{8}3,{4}1/6h[4:1],{16}7,8,1,2,
{8}3/7,{16}6,4,5,4,{8}6h[8:1],{24}8,1,2,3h[8:1],,,7,8,1,2h[8:1],,,{8}4,
{16}6,5,7-4-8<5[8:3],4,{8}8,{4}7/5,{16}3,2,{8}1h[8:1],
{16}4,2,8,3,7,5,1,6,2,4,3,8,5,7,1,6,
2,4,3,5,3,4,{8}2h[8:1],{16}7,5,6,4,6,5,{8}7h[8:1],
{16}2,4,3,5,3,4,{8}2h[8:1],{16}7-3[8:1],5,6,5,{4}7b,
{16}2b,5,4,6,3,4,{8}2h[8:1],{16}7,4,5,3,6,5,{8}7h[8:1],
{24}2b,3,4,5,{48},8b,,7,,6,,{16}5,{24}1b,2,3,{16}4>6b[4:1],{48}7b,,6,,5,,{16}4,,,,,{8}5bx,
4-8[8:1],3,2-5[8:1],1,7-4[8:1],6,3/7,
2,1-4[8:1],8,5-2[8:1],6,7-4[8:1],8,3,
1,2-7[8:1],3,6-1[8:1],5,4-8[8:1],3-7-5-2[2:1],2,
{16},,,,,,,,E8,E1,E2,E3,E4,E5,E6,E7,
{8}1/E8,2-6[8:1],8,2>4[8:1],4-8-3[4:1],2,7,6,
5,7-3[8:1],4,7>1[8:1],1-5-8[4:1],7,5,4,
3,2-7[8:1],8,2-5[8:1],5-3-8[4:1],2,6-1>7[2:1],7,
{16},,,,,,,,E4,E3,E2,E1,E8,E7,E6,E5,
{8}8/E4,1-3[8:1],8,1-5[8:1],5-3-8[4:1],1,7,6,
5,7-4[8:1],3,7-2[8:1],2-8-6[4:1],7,3,4,
5,3-8[8:1],6,3-5[8:1],5-1[8:1],3,6,7,
{24}2b,3,4,5,{48},8b,,7,,6,,{16}5,{8}3b,{24}7b,6,5,4,{48},1b,,2,,3,,{16}4,{8}8b,
6/2qq7[2:1],,,4,{2}4h[2:1],
{16}5,6,7,8,1-6[8:1],2,{8}3/7,{4}1/4,7/5h[4:1],
{16}4,3,2,1,8-3[8:1],7,{8}6/2,{4}8/5,{16}2,4,1,5,
{1}8<2[4:3],
{8}1h[8:3],,,5,{64}7$/3v8-2>6b[1:1],7?v4-6<2[0.2812##1.2],{1},{4},{16},,,{32},{8}4/8h[2:3],
{16}A5,E5,,E4,{8}A3,{16}D3,B3,B5,D6,{24}B6,C,B2,A2,{48},,,,{16}D2,
B1,B7,D7,,E8,{8}E1,{2}C,
{64}2$/6v3-5-8<4b[2:3],2?v7-1-4>8[0.2812##1.8],{1},{4},,,{16},,,{32},{8}5/1h[2:3],
{16}A4,E5,,E6,{8}A6,{16}D7,B6,B4,D4,{24}B3,C,B7,A7,{48},,,,{16}D8,
B8,B2,D3,,E2,{8}E1,{16}E7,E6,E5,E4,E3,E2,E1,E8,
{4}E7/4bx-1[8:1],4/6-3[8:1],{16}6/2,1,8,7,6,5,4,3,
{4}2/5-8[8:1],5/3-6[8:1],{16}3/7,8,1,2,3,4,5,6,
{4}7/1-5[8:1],1/6-3[8:1],{16}6/2,1,8,7,6,5,4,3,
{4}2/8-4[8:1],8/3-6[8:1],{16}3/7,8,1,2,3,4,5,6,
{24}7/1b,2,3,4,,,,,,2b/8b,7/3,6/4,{4}5,{8}4/3,{16}2,6,
5,7,4,5,2,4,3-6[8:1],7,{2}5h[4:1],
{24}8b/7b,6/1,5/2,4/3,,,,,,2b/1b,3/8,4/7,{4}5/6,{8}8/3,{16}4,7,
5,6,2,5,4>6[4:1],7,3,4,{2}2h[4:1],
{4}5b/1b-5[8:1],1/7-4[8:1],7/2-5[8:1],2/8-4[8:1],
8/3-1[8:1],3/5-7[8:1],5/8-4[8:1],8/1,
{8}2-6[8:1],2,5-1[8:1],5,4-8[8:1],4,7-3[8:1],7,
1,1,1-6-3[4:1],1,{24},,,,,,,,,,,,1b/2b,
3/8,4/7,5/6,,,,,,{8}1/7,6/5,2/8h[4:1],{16},,1,7,
5,6,3,4,2,8,1,6,{8}5,7h[8:1]/4h[8:1],{16},,,,2b,
8,2,8,{8}2,6,3/4,7/1h[4:1],{16},,6,2,
4,3,8,5,6,2,{8}4,{16}5xh[16:1]/3xh[16:1],,,6xh[16:1]/2xh[16:1],,,{8}7/1-6<7-3>2-5b[4:3],
{1}8h[4:3],
{24}4b/8b,7/3,6/2,5/1,,,,,,,,,6b/2b,3/7,4/8,5/1,,,,,,,,,7b/3b,
2/6,1/5,4/8h[8:3],,,,,,,,,,,,1b/7b,6,5,{16}4,{48}8b/2b,,3,,4,,{16}5,
{24}1b/7b-5-8-4-1-3b[4:3],6,5,4h[8:3],{4},,,{16},{48},{1}Ch[8:3],
Ch[8:3],
Ch[8:3],
Ch[8:3],
{128}E7/B6/E3/B3,Cf,
E
