&title=Fortuna
&artist=Powerless
&first=0
&des=ネギXF
&lv_5=13
&inote_5=(175)
{1},
{16}
4-1[8:1],5,4,5,{4}4b>4[4:3]*<4[4:3],,,,,2h[4:9]/6h[4:9],,,,
,,,,,,
{16}5-8[8:1],4,5,4,5b>5[4:3]*<5[4:3],,,,,,,,,,,,,,,,,,,,{1}1s5[4:9],,
{16},,,,,,,,,,,,
2<7[8:1]/7,,,,6,,6h[8:3],,,,5,,4h[8:3],,,,6,,5h[8:3],,,,3,,4h[8:2],,,,
6,,7h[8:13]/4,,,,,,
4,,4,,,,5,,5,,,,3,,3,,,,6,,6,,,,18,,27,,6>3[8:1]/3,,,,2,,
2h[8:3],,,,4,,5h[8:3],,,,3,,4h[8:3],,,,5,,6h[8:3],,,,3,,2h[4:3],,,,,,
4,,4,,,,6,,6h[4:3],,,,5,,5,,,,4,,4,,,,5/4,,36,,
2b/7b,,,,27,,1,,2-5[8:1]/7,,3,,7,,,,47,,,,3-8[8:1]/7,,2,,7,,,,78,,1/6,,
2b/5b,,,,27,,8,,2/7-4[8:1],,6,,2,,,,25,,,,2/6-1[8:1],,7,,2,,,,28,,37,,
46,,5,,46,,5,,35,,4,,35,,4,,26,,1,,26,,5,,37,,8,,37,,4,,
6,5,6,5,6,4,5,3,4,3,4,2,4,1,4,8p6[16:9],4p2[16:8],,,,,,,,,,,,,,,,
7b-4[8:1],,,,78,,1>3[8:1],,,,1-5[8:1],,8,,1/7-3[8:1],,,,7<5[8:1],,4,,7,,
2,,6,5,6,,4,5,3-7[8:1],,3,,4,,5,,6,8,6,1,6,2,6,3,6,,5/8bz4[4:1],,,,,,,,
,,2-5[8:1]/6-1[8:1],,,,2b/6b,,,,8<3[4:1],,8,,,,
1>6[8:2],,1,,5,,,,8,,7,,6,5,7,4,5,2,4,,3/6,,
2b-5[8:1],,5,,2,,8b-4[8:1],,6,,8,,2b-6[8:1],,3,,2,,
5b-8[8:1],,4,,5,,3,,3,,3,4,3,4,
2b-5[8:1],,,,12,,8-6[8:1],,,,8-4[8:1],,1,,8/2-6[8:1],,,,2-4[8:1],,5,,2,,
7,,3,4,3,,5,4,6-2[8:1],,6,,5,,4,,3,1,3,8,3,7,3,6,3,,4/1bs5[4:1],,,,,,,,
,,7-4[8:1]/3-8[8:1],,,,7b/3b,,,,1>6[4:1],,1,,,,
8<3[8:2],,8,,4
,,,,2,,2,,1,8,2,7,3,6,4,5,3,6,
7b-4[8:1],,5,,7,,1b-5[8:1],,3,,1,,6b<1[8:1],,4,,6,,
5b-1[8:1],,8,,5,,8,7,6,5,{24}2,1,8,7,6,5,{16}4b/8b,,,,
1-4[8:1],,4-1[8:1],,,,5-8[8:1],,5,,,,4-1[8:1],,1-4[8:1],,,,8-5[8:1],,8,,,,
4,,4,,5b/2,,,,8-5[8:1],,5-8[8:1],,,,4-1[8:1],,4,,,,5-8[8:1],,8-5[8:1],,,,
1-4[8:1],,1,,,,6,,6,,7,4,6,5,8-5[8:1],,6,,,,1-4[8:1],,3,,,,8-4[8:1],,6,,,,
1-5[8:1],,3,,,,6,,7,,8h[2:1]/4b,,5,,6,,7,,1h[2:1],,2,,3,,4,,
5-8[8:1],,4,,5-1[8:1],,3,,5V74[4:1],,2,,5,,3,,1b,,,,
5v8[8:1],,8-5[8:1],,,,1>4[8:1],,1,,,,8-5[8:1],,5v8[8:1],,,,4>1[8:1],,4,,,,
6,,6,,8/5b,,,,4v1[8:1],,1-4[8:1],,,,8<5[8:1],,8,,,,1-4[8:1],,4v1[8:1],,,,
5<8[8:1],,5,,,,3,,2,,4,3,5,2,4-8[8:1],,3,,,,5-1[8:1],,7,,,,6-2[8:1],,8,,,,
7-3[8:1],,4,,,,8,,8,,2b>8[2:1]/6b,,,,7,,7,,,,1,,1,,,,
5qq1[8:3]*pp1[8:3],,5,,,,,,,,,,3bV52[8:4]/7bV16[8:4],,4b/8b,,,,,,,,,,,,,,,,,,
6,5,6,,6,,6,,4/5,,3,4,3,,3,,4/5,,6,5,7,5,6,,4/5,,3,4,2,4,3,,1/8,,7,5,6,5,6,,
1/8,,2,4,3,4,2,,{24}1b/8b,2/7,3/6,{16}4qq1[8:3]/5pp8[8:3],,,,4b/5b,,,,,,,,,,
7,6,5,4,2,3,4,5,8,7,6,5,1,2,3,4,7,6,5,4,2,1,8,7,4,5,6,7,2,3,4,5,8,7,6,5,
1h[4:3],,4,,4,,4,,4-8[8:1],,4,,4b,,2,,3/1,,4,,3/5,,6,,7/5,,8,,1/7,,2
,,3/8,,4,,2/5,,6,,7/4,,8,,1<6[8:1]/6,,2,,3,,4,,5-1[8:1],,7-4[8:1],,5,,7,,
8>3[8:1],,7,,6,,5,,4-8[8:1],,2,,4,,1,,1b/7b,,1/7,,5/6,,5/6,,2/4,,2,,2/3,,2,,
3/5,,3/5,,7/4,,7/4,,6/8,,6,,6/5,,6,,
3,4,3,4,3,5,4,6,5,6,5,7,5,8,5,1,5w1[2:1],,,,,,,,,,,,,,,,
{8}
1b>3[8:1],,1-4[8:1],7<5[8:1],8,7-4[8:1],1>3[8:1],8,
1-4[8:1],7<5[8:1],8,7-4[8:1],1>3[8:1],8,1,7,
8<6[8:1],,8-5[8:1],2>4[8:1],1,2-5[8:1],8<6[8:1],1,
8-5[8:1],2>4[8:1],1,2-5[8:1],8<6[8:1],1,8,2,
1b-3[8:1],,1-5[8:1],8-6[8:1],1,8-4[8:1],3-1[8:1],8,3-8[8:1],5-7[8:1],3,5-1[8:1],
2-6[8:1],5,2,7,
8h[8:3],1,2,3,4h[8:3],5,6,7,8-6[8:1],3,8-3[8:1],5,8V26[4:1],4,8,3,
1b>4[8:1],,1-5[8:1],8-4[8:1],7,8<5[8:1],1>4[8:1],2,1-5[8:1],8-4[8:1],7,
8<5[8:1],1>4[8:1],2,1,6,
7-3[8:1]/1,,7-5[8:1],8-4[8:1],1,8-2[8:1],7-3[8:1],6,7-5[8:1],8-4[8:1],
1,8-2[8:1],7-5[8:1],6,7,3,2b/8-6[8:1],,8-4[8:1],1-3[8:1],8,1-5[8:1],6-8[8:1],
1,6-1[8:1],4-2[8:1],6,4-8[8:1],
7-3[8:1],4,7,2,
5>6[8:3],,1,1,,1,2,3,
{16}4,8,4,8,4,8,4,8,
{24}4,3,2,1,8,7,6,5,4,3/5,6/2,7/1,
{16}8b,,,,5<8[8:1],,8>3[8:1],,5,,4-8[8:1],,4,,6,,
5<8[8:1],,8>3[8:1],,5,,4-1[8:1],,4-7[8:1],,6,,,,,,8/3,,,,
2-6[8:1],,6v1[8:1],,2,,8-4[8:1],,8,,3,,2-6[8:1],,6v3[8:1],,2,,
8-4[8:1],,8,,1,,2,,3/7,,2,5,4,7,4>6[4:1],,1,,4,,5-1[8:1],,5,,
3,,4>1[8:1],,1<6[8:1],,4,,5-1[8:1],,5,,3,,2,,8,,7h[8:3],,
6,,5,,4,,3h[8:3],,2,,1,,8,,7-1[8:1],,2,,7-4[8:1],,5,,7V58[4:1],,3,,7,,4,,1b,,,,
8<5[8:1],,5>3[8:1],,8,,1-5[8:1],,1,,6,,8<5[8:1],,5>3[8:1],,8,,
1-4[8:1],,1-6[8:1],,6,,,,,,8/3,,,,
2-6[8:1],,6V42[8:1],,2,,8-4[8:1],,8,,1,,2V46[8:1],,6-2[8:1],,2,,
8-4[8:1],,8,,3,,2,,1/6,,
8,7,1,6,
1>4[8:1],,4<6[8:1],,1,,8-4[8:1],,8,,3,,1>4[8:1],,4<6[8:1],,1,,
8-4[8:1],,8,,5,,3,,6,,7/3b<2[2:1],,,,8,,8,,,,4,,4,,,,
3/7,,3/7,,,,1/5,,{24}1/5,2/6,3/7,4/8,5,6,7,8,1,2/8,7/3,6/4,
{16}5b,,,,4/5,,2/6h[8:5],,,,3,,3,,,,5,,5,,
6,,6,,4,,4,,3,,3,,6/4,,6,,5,,7/3h[8:5],,,,5,,5,,,,4,,4,,3,,3,,5,,5,,4/5,,6/5,,4/7,,
6,,5,,2/5h[8:5],,,,4,,4,,,,2,,2,,3,,3,,4,,4,,5,,5,,6/4,,5,,3,,2h[8:5]/4,,,,3,,3,,,,
5,,5,,4,,4,,6,,7/3,,8-4[8:1]/4-8[8:1],,8/4,,{1}8>8[2:15]/4<4[2:15],,,,,,,,,{4},,,,
