&title=義勇忍侠花吹雪(GAME VERSION)
&artist=田澤茉純; 嘉山未紗; 新田ひより
&first=0
&des=BlackH vs Yuzukeai
&lv_5=13+
&inote_5=(256)
{1},,
{8}3b/7,,,5bq3[4:3]/6,,,,,,,,,,,,,
{8}3h[8:3]/4,,,B8/E8f/B7,,,,,
{8}6h[8:3]/5,,,B1/E2f/B2,,,,,
{8}6b/2,,,4bq8[1:1]/3,,,,,,,,,,,,,
{8}3h[8:3]/1,,,B5/A5f,,,,,
{8}6x,8x/4x,,,6x,8x/4x,,,
{8}1b/8b,,2,4,,4,3/5x,,
{8}2-4[8:1],,6-8[8:1],,2x,,,,
{8}81,,7,5,,5,6h[4:1],,
{8}3,,24,,6,,57,,
{8}81,,7,5,,5,6x/4,,
{8}7-5[8:1],,3-1[8:1],,7x,,,,
{8}18,,2,4,,4,3h[4:1],,
{8}7,,56,,2,,34,,
{8}3/6h[4:1],,2,4,,4,35,,
{8}6-4[8:1],,2-8[8:1],,6x,,,,
{8}6/3h[4:1],,7,5,,5,6,,
{8}6/2h[4:1],,4,,2/6h[4:1],,4,,
{8}3/6h[4:1],,1,5,,5,6x/2,,
{8}3-5[8:1],,7-1[8:1],,3x,,,,
{8}4x,8,2,6h[8:3],,,2x,6,
{8}4^1b[2:1],8^5[8:3],,,,,,,
{8}Cf,,,,,,,,
{8},,,,,,,,
{8}6h[8:3],,,4h[8:3],,,,,
{8}37,,,,,,,,
{8}E7h[1:1]/Ch[1:1],,,,,,,,
{8}D3/D7/E3,,,,,,,,
{8}1h[8:3],,,7h[8:3],,,,,
{8}E8/B7/B6/B5/E5,,,,,,,,
{8}45,,,56,,,67,,
{8},8,,,1,,8,,
{8}34,,,45,,,56,,
{8},7,7,,16,,,,
{8}23,,,34,,,45,,
{8},56,,,7,,8,,
{8}16,,,34,,,2,1,
{8}3,8,4,7,5h[2:1],,,,
{8}6,1,5,2h[8:3],,,6,1,5,2h[8:2],,,43,,,,
{8}3,7,4,6h[8:3],,,3,7,4,6h[8:2],,,7^5[8:1]/4,,,,
{8}3,4,2h[4:1],4,,,6,5,
{8}7h[4:1],5,,,4^2[8:1]/7^5[8:1],,,,
{8}1xh[8:3],,,7h[8:3],,,5,,
{8}5-8[8:1],,,,7b,,,,
{8}1,6,2,5h[8:3],,,3,8,4,7h[8:2],,,56,,,,
{8}6,1,5,2,3/4-6[8:1],,,,
{6}3x,2,1,8b/7b,,,
{8}56,,7,,56,,8,,
{8}56,,1,,56,,2,,
{8}3h[4:1]/4h[4:1],,,1h[4:1]/8h[4:1],,,56,,
3b/7b,,,,
{4}8-4[8:1],,
{8}1b,,6,5,8-5[8:1],,3,,1,,3,5,1-4[8:1],,4,,7,,2,8,4,,87,,2,2,4,4,1-5[8:1],5,1b,,
8V64[8:3],,4,4,,2,2,,1V35[8:3],,6,6,,8,8,,1V75[8:3],,4,4,,2,2,,
3x-8[8:1],,7x-4[8:1],,2x-5[8:1],,6,,
8b,,3,5,1-5[8:1],,6,,8,,6,4,8-4[8:1],,4,,2,,7,1,5,,87,,6,6,8,8,7-3[8:1],1,7b,,
1>4[4:1],,5,5,,7,7,,8<4[8:3],,3,3,,1,1,,8>5[8:3],,5,5,,7,7,,
6,5,8,1,4-8[8:1],3,4,,
2hx[8:3],,,3,,,8,,8x/7hx[8:3],,,5,,,4x-1[8:1]/5x,,E4/B4f/B3,,6,6h[8:3],,8,8,,
2,1,3,8,4,7,5,6,5h[4:1],,
6,4,5h[4:1],,2,4,3-6[8:1],,8-3[8:1],,2-5[8:1],,6,,
8q4[4:1],,4-7[4:1],,3x,,2x,,1p5[4:1],,5-2[4:1],,6x,,7x,,
8p4[4:1],,4<7[4:1],,3x,,2x,,1>4[4:1],,4-8[4:1],,5x,,6x,,
5,5,4,3,4,5,6,6,3,5,4,3,2,4,3,
{16}2,1,
{8}
2h[4:1],,4h[4:1],,5h[4:1],,7,,
1,1,4,3,7,7,5,6,3-8[8:1],,5,,7-4[8:1],1,1,,3-8[8:1],,5,,7h[4:1],1,1,1,
8hx[4:1]/6hx[4:1],,,3hx[8:3]/4x,,,2x>1[2:1],,2b/Cf,,,,,,,,
1hx[4:1]/2hx[4:1],,,7hx[8:2]/5x,,,8x<1b[2:1],,8b/Cf/B2/B3,,,,,,,,
3hb[2:1]/7h[2:1],,,,,,
{16}3,4,3,,2x/5x,,,,
{8}6,5x/7x,,3,4x/2x-6[8:1],,Cf,,
8,8,,3,12,,
7,7,5,5,8-4[8:1],4,8b,,
2h[4:1],,1,2,5,4,7-4[8:1],1,7,,3,4,8,7,5-2[8:1],6,5,,
7,8,5,4,1,2,1x-6[8:1],,5x-2[8:1],,7x-4[8:1],,8,,1b,,
6,4,8-5[8:1],,8/4,,1b,,3,5,1-5[8:1],,1/8,,6b,,2,8,4,,1/2,,3b,3,1,1,2-6b[8:1],8,2,,
7hbx[4:1],,8,7,3,4,2-5b[8:1],1,2bx,,6,5,1,2,4-8b[8:1],3,4bx,,
2,1,4,5,8-4b[8:1],7,8bx,,6,,
2,8,1,7,
6hx[4:1]/8hx[4:1],,,4hx[4:1]/3hx[4:1],,,2x/3x,,6-2[8:1]/Cf,,,
,,,1x-4[8:1],,
{8}1b/4b,,6,5h[4:1],,8,1/8x,,
{8}2,4,3,4,1-5[8:1],,18,,
{8}7h[4:1],,4,6h[4:1],,3,4h[4:1],,
{8}1,,28,,5,,46,,
{8}18,,3,4h[4:1],,1,8/1x,,
{8}7,5,6,5,8x-4[8:1],,18,,
{8}2h[4:1],,5,3h[4:1],,6,5h[4:1],,
{8}8,,46,,1,,35,,
{8}2b/6b,,3,4h[4:1],,1,8,1,
{8}7,5,6,5,8-4[8:1],,18,,
{8}2h[4:1],,5,3h[4:1],,6,5,6,
{8}1,7,1,8,2h[4:1],,4,,
{8}3/7-4[8:1],,1h[4:1],,6x,2,8,,
{8}6/2-5[8:1],,8h[4:1],,3x,7,1,,
{8}5b,1,7,3h[8:3],,,7b,3,
{8}5,1,,,,,,,
E
