&title=【籽岷音mad】FREEDOM DiVE (tpz Overcute Remix)
&artist=心白-HW
&first=0.15
&des=双层吉士汉堡
&lv_5=14
&des_5=双层吉士汉堡
&inote_5=
(234.55){4},,,,7/4b-2[8:1],
1,{8}8h,8h,{4}7/3,
5/1>4[8:1],1,1-5[8:1],1/4,
7/4b-2[8:1],1,{8}8h,8h,{4}7/3,
5<8[8:1],5/1,4b-1[8:1],4b/8b,
2/5-7[8:1],8,{8}1h[16:1],1h[16:1],{4}2/7,
5/4-2[8:1],8,{8}1h[16:1],1h[16:1],{4}8/2,
4/5-7[8:1],1,{8}2h[16:1],2h[16:1],7h[16:1],7h[16:1],
8/1,8/1,1/8,8/1,{24}1b/8,2,3,4,5,6,{4}7,
8-4[8:1],8/4,{8}2>5[8:1],1,{4}2/8,
{8}8-2[8:1],8,3-5[8:1],3,{4}8,7b/3b,
1-5[8:1],1/5,{8}7<4[8:1],8,{4}7/2,
{8}8b,8b,8b,8b,{2}1w5[8:1],
{4}8-4[8:1],8/4,{8}2>5[8:1],1,{4}2/8,
{8}8-2[8:1],8,3-5[8:1],3,{4}8,3b/7bV13[4:1],
3V57[4:1],7>3[4:1],3<7[4:1],7q3[4:1],
3q7[4:1],7>7[2:1],3,7qq3[4:7],
{2}3h[4:1],2h[4:1],
1h[4:1],8pp3[2:3],
4h[4:1],5h[4:1],
6h[4:1],{8}1,1,8,8,
{2}7/2q5[2:3],6h[4:1],
7h[4:1],8p6[8:9],
{4}4,4,3,3V15[4:3]*V17[4:3],
,,,,5/4bh[4:1],
{8}5,4,{4}5,5/4,
6/3bh[4:1],{8}6,3,{4}6,3/6,
4/5bh[4:1],{8}4,5,{4}4,4/5,
3/6bh[4:1],{8}3,6,{4}3,6/3,
{2}1bh[4:1]/2bh[4:1],7bh[4:1]/8bh[4:1],
3bh[4:1]/4bh[4:1],6bh[4:1]/7bh[4:1],
1bh[4:1]/3bh[4:1],8bh[4:1]/5bh[4:1],
{4}4b/5b-7[8:1],5b/4b-2[8:1],4b,6b,
5/1,8>1-4b[16:3]/4<5-8b[16:3],{2}8x/4x,
{16}2b,3,4,5,6,7,8,1,2,3,{8}4,{4}Cf,
2-4[8:1]/5-1[8:1],5-7[8:1],5/3-7[8:1],3,
1-5[8:1],5/1,4-7[8:1]*-1[8:1],4,
8-6[8:1]/3-8[8:1],8-4[8:1],5,7-1[8:1]/3-1[8:1],
{2}3-5[8:1]/7-5[8:1],{4}7b/3b,1b/5b,
8-5[8:1]/4-2[8:1],4-1[8:1],4x/8-4[8:1],8,
2-6[8:1],6/2,5-8b[8:1],5b/4b,
1-3[8:1]/6-1[8:1],1-5[8:1],4,2-8[8:1]/6-8[8:1],
{2}6-4[8:1]/2-4[8:1],{4}2/6,8/4,
3h[8:1]/E5,3h[8:1]/E6,3h[8:1]/E7,2h[8:1]/E8,
2h[8:1]/E1,2h[8:1]/E2,{2}1x-5[8:1]/2x-5[8:1],
{4}6h[8:1]/E5,6h[8:1]/E4,6h[8:1]/E3,7h[8:1]/E2,
7h[8:1]/E1,7h[8:1]/E8,{2}8x-4[8:1]/7x-4[8:1],
{4}3h[8:1]/B4,3h[8:1]/C,6h[8:1]/B5,6h[8:1]/C,
4h[8:1]/B7,5h[8:1]/B2,{2}1x-4[8:1]/8x-5[8:1],
{8}3,3,6,6,2,2,7,7,
{32}E1,E2,E3,E4,E5,E6,E7,E8,D1,D2,D3,D4,D5,D6,D7,D8,{2}Cf,
{4}7p3[8:1],2/7,1>4[8:1],1/5,
6v1[8:1],6/4,3-7[8:1],3/7,
5-8[8:1],5-2[8:1],5<8[8:1],5>2[8:1],
5,7,{8}8/1,7/2,6/3,4/5,
{2}4v1[8:1]/5v8[8:1],{4}2/6,6<1[8:1]/2-6[8:1],
6/2,4x,5q1[8:1]/2-5[8:1],5/2>2[2:1],
2,8x,5-1[8:1],5/4,
{16}8,7,6,5,{4}4/1-5[8:1],1w5[8:1],Cf,
2>5[8:1],2/6<1[8:1],6/2-6[8:1],2,
{16}1,8,7,6,{4}4-8[8:1]/5-1[8:1],4/5,7/2,
8V64[4:1],4V28[4:1],8,4,
{16}8b/4b,3/7,6/2,5/1,{4}4/8-4[8:1],8w4[8:1],8b,
{8}2,6,1,7,6/2,,,1/8,
{2}2v3[8:1]/7v6[8:1],{16}4/5,,,4h[16:3]/5h[16:3],,,,,{4}7-4[8:1],
1-5[8:1],{2}8w4[8:1],
{4}D3f/A2/E3/A3,E7f/D7/A7/A6,{2}5x<8[8:1]/4x>1[8:1],
{8}E6,E2/A2,E4,E8/A7,D6,B2/A2,D4,B7/A7,
B5,E2/A2,B4,E8/A7,A6,B2/A2,A3,B7/A7,
E6,E2/A2,E4,E8/A7,D6,B2/A2,D4,B7/A7,
{4}B5,4x-8b[8:1],6b,5b/1b,
5V71[16:3]/1q5[8:1],1/5,,7/3,
6<2[4:1],2v4[8:1],4,2,
2-6[8:1],6,{2}3h[4:1]/7h[4:1],
{4}8b-4[8:1],{8}4b,3b,{2}6b/2b,
{8}3,3,4,4,3,4,3,3,
6,6,5,5,6,5,6,6,
3,3,4,4,3,4,3,3,
6,6,5,5,6,5,6,6,
4,4,5,5,4,6,3,5,
4,4,6,6,3,6,4,5,
6,6,4,4,5,3,6,4,
{4}3>6[4:3],5,5,5,
5<2[4:3],4,4,4,
4>7[4:3],6,6,6,
6<3[4:3],4,4,4,
4-1[8:1],7,5-8[8:1],2,
4-8[8:1],4/5,5-1[8:1],5/4,
2-5[8:1],2/1,7-4[8:1],7/8,
{8}2,2,7,7,1,1,8,8,
{2}1h[2:1],{16}8,7,6/2,5/3,{4}4b,
2>5[8:1],8/2,8p4[8:1],8/4,
3-7[8:1],3/5,6-1[8:1],6/2,
4-1[8:1],4-7[8:1],4>1[8:1],4<7[8:1],
4,2,{8}1/8,2/7,3/6,5/4,
{2}5v8[8:1]/4v1[8:1],{4}7/3,3-8[8:1]/7-3[8:1],
3/7,5x,4-8[8:1]/7-4[8:1],4/7V13V57[2:1],
7,1x,4-8[8:1],4/5,
{16}1,2,3,4,{4}5/8-4[8:1],8w4[8:1],Cf,
7<4[8:1],7/3>8[8:1],3/7-3[8:1],7,
{16}8,1,2,3,{4}5-1[8:1]/4-8[8:1],5/4,2/7,
1>5[4:1],5<1[4:1],1,5,
{16}1b/5b,6/2,3/7,4/8,{4}5/1-5[8:1],1w5[8:1],1b,
2-5[8:1],2/1,7-4[8:1],{8}7/8,1,
{2}1w5[8:1],{16}7/3,,,6/2,,,{8}5/1-5[8:1],
1/5,,,7-3[8:1]*-4[8:1],,,,1,
{4}8b/2b,{16}5b/3b,,,,{4}E7f/B7/B6,E3f/B2/B3,
{8}7-4[8:1],7,1-5[8:1],1,8-4[8:1],8,3-8[8:1],3,
5-1[8:1],5,2-5[8:1],2,8-4[8:1],8,3-6[8:1],3,
1-6[8:1],1,2-5[8:1],2,8-5[8:1],8,4-1[8:1],4,
6-1[8:1],6,2,2,3,3,5,5,
{2}5v8[8:1]/4v1[8:1],{4}7<3[4:1],3>7[4:1],
7<3[4:1],3,7,{16}3b/7b,2/6,1b/5b,8/4,
{4}7b/3b,8/4,{2}1h[4:1]/5h[4:1],
{16}8b/4b,1/5,2b/6b,3/7,{4}4b/8b-4[8:1],8bw4[8:1],Cf/B8/B4,
1-5[8:1],1/6,7-3[8:1],7/2,
{16}1/4,2/5,3/6,4/7,{4}8/5,1/5,7/3,
{24}7/1h[8:1],6,{12}5,{24},,2/8h[8:1],3,{6}4,{24}7b/1h[8:1],6,{12}5,{24},,2b/8h[8:1],3,{6}4,
{24}1b/5,2/6,3/7,4/8,5,6,7b,8,1,2,3,4,5/1bh,6,7,8,1,2,{4}3b/5bh,
{2}8-4[8:1]*v1[8:1],2v4[8:1]*v1[8:1],
7v6[8:1]*-4[8:1],{16}1/8,,,7/2,,,{8}6/3,
{2}5w1[8:1],4w8[8:1],
{4}E7f/A7/D7/A6/B7/B6,E3f/A2/D3/A3/B2/B3,8w4[8:1],8b/Cf/B6/B2,
{16}1x,2,3,4,8x,7,6,5,8x,1,2,3,8x,7,6,5,
2x,3,4,5,1x,8,7,6,1x,2,3,4,7x,6,5,4,
1x,2,8x,7,2x,3,7x,6,3x,4,6x,5,4x,3,6x,7,
{32}1x,2,{96},,{24}3,4,5,6,7bx/1bx,2,3,4,5,6,7bx/8bx,1,2,3,4,5,{32}8bx/6bx,1,2,3,4,5,6,7,
{1}8b/1b,
,1b,
,1b,
E
