&title=犠奏
&artist=Feryquitous feat.双葉湊音
&first=0.029
&des=hakamori
&lv_5=14.1
&inote_5=(205)
{8}
,,,,4,3,2,1,8xV24[4:3]/7xh[4:4],,,,,,,,,,,,5,6,7,8,1x-5[4:3]/4xh[4:4],,,,,,,,,,,,
C,,,,2h[1:1]/6h[1:2],,,,,,,,,,,,8q4[102.5#4:1],,,,,,,,,,,,5/4,,,,2/7,,,,
6/3qq8[4:3],,,,,,,,B5,,,,E7,,,,7qq4[4:3]/4x,,,,,,,,3,,,,2,,,,1h[4:6]/5h[1:1],,,,,,,,,,,,5w1[102.5#2:1],,,,,,,,,,,,,,,,7x,4,6x/5x,,
1b-4[8:1],,7-2[8:1],7,,3,4,,8/7,,,1/2,,,5<3[4:6]/4,,,,4,,4,,4,,,,5,,5,,5,,5b-8[8:1],,3-6[8:1],3,,8,7,,3/4,,,6/5,,,8/1>7[4:6],,,,8h[4:1],,,,8,,,,1,,1,,1-5[8:1],,8/1b,,,,
7,6,5-8[8:1],,5,,2,3-6[8:1],,7,8pp6[4:5],,,,5,,5,,5,,,,4,,4-8[8:1],,4x,,2b/6b,,,,2,3,4-7[8:1],,4b/8-3[8:1],,8,5<4[8:9],,,4,,4,,4,,,,,,5p4[4:3],
,,,,,,,,,,,,,,,
{8}
5-8[51.25#32:1],,4-1[68.3#24:1],,,,C,,5b/4b,,
2-6[8:1]/6-1[8:1],,2/6,,7-4[8:1],,7/1-5[8:1],1,8-3[8:1],8,4-1[8:1],,5/4,,7-2[8:1]/3-6[8:1],,7/3,,2x-5-3-8[2:1],2,7x,7x-4[8:1],,,,,
6/4,3,7/1,2,8-5[8:1]*-3[8:1],,8,,6/2,,
{16}
2,4,3,4,
{8}
2-6[8:1],,2/7-3[8:1],,7/1-5[8:1]b,,1/4,,
6/4,6/4,
{16}
2,1,2,,
3/4,,3/4,,7,8,7,,
{16}
2/6,,,1x/5x,,,7x/3x,,6x^8[8:1]/1x-4[8:1],,,,6b/1b,,,,
{8}
6/5,4,2xV46[4:1],2,1,8,7xV53[4:1],7,2,1,8x-4-2[4:1],8,7,6,5x-8[8:1],,5/4,,
1xv7[8:1]/5xv3[8:1],,1/5,,8xq5[4:1]/2xp5[4:1],,8/2,,,,7/3,2,5/1,6,7^2v4[2:1],,,4,4,,3-8[8:1],,3/5-1[8:1],,5/2-6[8:1],,2/8[8:1],,Cf,,
7/2,7-4[8:1],7,7/2,2-5[8:1],2,2/8,8-4[8:1],8,8/5qq1[2:1],,,
6,,7v4[8:1],7,,,
,6,2/5,3,4,8/1q5[8:1],,1b/8b,,7/3,{16}6,5,6,,4,,1b/7b-3[8:1],,,,8,,,,
{8}
6/5,5/4,3/4,2/6,8x-5[8:1]/1x-4[8:1],,,,
4x,5/3,6,7/2,1-6[8:1],,1b/5b,,
{16}
4,,7,8,7,,8/2,,6b/5bw1[8:1],,,,5x,,,,,,
{4}
7qq1[4:8],{8}
,4h[8:15],,,,,,,,,,,,,,,,,
5/3^6[4:1],,7,7,,8h[4:1],,,1/3,,,8/6,,,5pp8[8:6]/4,,,,
{24}
B4,E4,,,,,,,,B2,E3,,,,,,,,
1,2x,,,,,,,,6,5x,,,,,,,,2/7,,,,,,
{8}
7-4[8:1]/1,,2,2,,3/5,,2V48[4:1],,5,5,,
6,1,7/3,,2-5[8:1]/8,,7,7,,6/4,,5V71[4:1],,3,3,,4-1[8:1],,,,6q1[2:1],,2h[8:1],,,3x,3x,,4z8[2:1],,7h[8:1],,,6x,6x,,
7/4-2[8:1],,6,6-4[8:1],,1h[8:2],,,7,5,6/4,3,7-3[8:1]/2,,7x,,
2-4[8:1],,2/4,,2-6[8:1],5,2/6x,,7-5[8:1],,7/5,,7-3[8:1],4,7/3x,,
1-3[8:1],,1/4,,1-5[8:1],5,1/6x,,8-6[8:1],,8/5,,8-4[8:1],4,8/3x,,
3,4,2,2,6,5,7,7,3^6[4:1],,6^1[4:1],,1^4[4:1],,4,,
7,7,5,5,3,3,1,1,8xV24V68b[8:6],,,,,,,,
Cf,,1,8/2,,5,6/4,,
6-3[8:1]/2,,2,1-4[8:1],,6,5<3[4:6],,,,4,,4,,4q3[2:1],,,,,,,,
5,4,6/3-6[8:1],,7,8-5[8:1],,1,2,,7x/6x,,1,2<4[8:11]/4,,,3h[4:1],,,,2hb[8:6],,,,,,,,
1,,8/2,3,5/4,6,7-2[8:1]/1,,5,4-1[8:1],,7,6h[4:1],,4x,5,5,8x/2x,1,1,7bpp3[4:6]/3bpp7[4:6],,,,,,,,,,,,,,,,2,3,
6-1[8:1]/4,,3,2-5[8:1],,8,8,,7/5,6,,5/3,4q5[8:6],,Ch[1:1],,,,,,,,1x-5[2:1],,,,,,,,,,Cf,,
4,5/3,,8,1-5[8:1]/7,,1/8,,6,6>3[8:1],,1,1,,2/6,,7s3[8:2],,7/4,,,,2x,4,3,7x,5,6,1xw5b[8:1],,1,,,,
7,6,5,,5-8[8:1],,1,2-7[8:1],,2,4>6[8:5],,,,A5,A4,A3,A2,1xqq3[2:1],,1/5h[2:1],,,,,,
5/4,,7^4[8:1]/2,,2,1-6[8:1],,4,4,,2b/5b,,,1b/7b,,,3bpp8[4:3]/6b,,,,7hx[4:2],,,,,,6,5,2,3,8-4[8:1]/4,,,,2b/6b,,,,
2,5,3/4-1[8:1],,7,7-2[8:1],,5<4q5[8:10],,,,,,,,,,,,,4xz8b[8:6],,,,,,,,,,,,,,,,
E6,,B6,,B7,,E8,,8hx[1:1]/1,,,,,,,,3h[2:1],,,,4h[2:1],,,,2qq5[4:3],,,,
{24}
B6,E6,,,,,,,,,,,
{8}
E8/B8,,,,5v3>7[1:1],,,,5hx[2:1],,,,,,,,
6^3[4:1],,6/1-5[8:1],,1x,,B7/B6/B2/B3,,
2h/4h,2/4,,7h/5h,7/5,,8h/1h,8/1,7/5,6,3/5,4,8-5[8:1]/1-4[8:1],,Cf,,
7-3[8:1]/3-8[8:1],,7/3,,6-8[8:1]/1-5[8:1],,6/1,,7-4[8:1],7,2-6[8:1],2,8-5[8:1],,1/8,,3-6[8:1]/7-2[8:1],,3/7,,2xv5V38b[2:1],2x,7x,7xv4[8:1],,,,,
1/2,3,4/5,6,1-4[8:1]/7-4[8:1],,1/7,,2/6,,
{16}
7,5,6,5,7-3[8:1],,,,7x/8-4[8:1],,,,8x/1-5b[8:1],,,,1x/2,,,,3/4,,3/4,,7,8,7,,6/5,,6/5,,2,1,2,,
{16}
3/7,,,1x/6x,,,8x/4x,,1x-6[8:1]/5x-2[8:1],,,,1b/5b,,,,
{8}
6/5,4,3-6[8:1],3,7-4[8:1],7,2^7[8:1],2,5-7[8:1]*-8[8:1],,5x-3[8:1]*-2[8:1],,5x,,8x-4[8:1],,1/8b,,
2-6[8:1]/7-4[8:1],,2/7,,8<5[8:1]/1>4[8:1],,8b/1b,,,,2/5,3,7/4,6,4v2<7[2:1],,,5,5,,6-1[8:1],,6/4-8[8:1],,4/7-3[8:1],,7/1,,Cf,,
2-5[8:1],8,2,7-4[8:1],1,7,3-8[8:1],5,3,6-1[8:1],,,
4,,2,2v5[8:1],,,,6,7/4,3,8/2,1q5[8:1],,8b/1b,,6/4,
{16}
2,1,2,,7/4,,6/5w1[8:1],,,,5b,,,,
{8}
2x/4x,8x/6x,5x/3x,2x/7x,1x-4[8:1]/8x-5[8:1],,,,
6x,5/3,2,1/7,8-3[8:1],,8b/5,,6/5,{16}
2,4,3,,5,,6-2[8:1]/4-8[8:1],,,,6b/4b,,,,,,
{8}
2pp8[4:8],,,5h[8:15],,,,,,,,,,,,,,,,,
8-4[8:1],2,8/1,3,3-7[8:1],5,3,,
6x^3[4:1],,3^8[4:1],,8^5[4:1],,5-2[4:1],,2-7[4:1],,7-4[4:1],,4-1[4:1],,1,,5w1[8:1],,,,
7/5,6,2/4,3,7/4,7,7/1,7,7/5,7,7/8,,3/8,3,3/5,3,3/1,3,3/4,,
7-4[8:1],8,7,2v5[8:1],1,2,6-1[8:1],4,6,,2h[4:1],,
{16}
6,5,4,3,2,1,8,7,6/2,,,,
{8}
7-3[8:1],7,5-2[8:1],5,8-4[8:1],,8/1^4[4:1],,4^7[4:1],,7^2[4:1],,2q3<2b[1:1],,C,,,,,,,,,,,,
7/4,3,8/2,{16}1,8,
{8}
1-5[8:1],,1/7-3[8:1],,7/4-8[8:1],,4/5^8[8:1],,5/2-6[8:1],,2,,8w4[8:1],,,,7b-2[8:1],,4,4-1[8:1],,3,3-6[8:1],,2,2-7[8:1],,,8h[8:3],,,
{16}1x,8x,1x,8x,1x,8x,1x,8x,1x,8x,1x,8x,1x,8x,1x,8x,Cf,,,,3/6,,5/4,,,,
7/4,,6,5,6,,1s5[4:1],,,,7,,7,,6,,2x/5x,,3,4,3,,8-4[8:1],,,,8/5-1[8:1],,,,5/6^3[8:1],,,,6x/2x,,,,2b/6b,,,,
6/4,,1/8,,2,4,2-8[8:1],,2,,7v4[8:1],,7,,,,3,,3,,2,1,2,,6x/5x,,3x/7x,,1bV36-2[8:9]/5bV72-6[8:9],,,,,,,,,,,,,,,,,,,,,,,,,,1xs5[4:1],
