&title=Boiling Blood
&artist=塞壬唱片-MSR/Cristina Vee/Jason Walsh
&first=0
&des=@MMFC
&lv_5=14
&inote_5=(163){1},,,,,,,,
{8},,,,,,,,7qq4[4:2]/3qq8[4:2],,,,,,,,1h[8:5],,,,,
{16}6,,,34,,,7-4[8:1]/2-8[8:1],,,,,,,,1h[8:1],,6,8h[8:1],,7,1,,8-4[8:1],,,,2,,3-8[8:1],,,,5,,6-4[8:1],,,,1pp4[2:1]*qq6[2:1],,,,
{8},,,,,,
{16}5h[8:1],,2h[16:1],,4h[16:1],,3V51[4:1],,,,5,,6,,7,,8qq4[2:1]*pp4[2:1],,,,
{8},,,,,,
{16}26,,,34,,,6h[4:1]/5,,,,3,,1b-5[8:1]/7b-4[8:1],,,,1b/7b,,,,2h[8:1],,4,,5,,4,,3-6[8:1],,3,,7h[4:1],,,,5,,7,,4,,5,,6-3[8:1],,6,,2h[4:1],,,,4,,2,,5,,4,,3-6[8:1],,3,,7h[4:1],,,,5,,7,,4,,5,,7v4[8:1]/2-5[8:1],,,,7b/2b,,,,6h[8:1],,5,,4,,5,,6-1[8:1],,6,,5,,,,3h[8:1],,4,,5,,4,,3-8[8:1],,3,,4,,,,6h[8:1],,5,,4,,5,,36,,7,,5h[16:3],,,7h[16:3],,,1h[8:2],,,,4,,6-8[8:1]/2-6[8:1],,,,6b/2b,,,,5-1[8:1],,5,,8,,7,,6<1[8:1],,6,,4>1[8:1],,,,6<1[8:1],,,,5-1[8:1],,5,,7-4[8:1],,,,7b/8b,,,,1-5[8:1],,1,,6,,7,,8<5[8:1],,8,,2>5[8:1],,,,8<5[8:1],,8,,4,,3,,2,,1-5[8:1],,5-8[8:1]*-2[8:1],,,,,,,,37,,6,,5,,4>8[8:1]*p7[8:1],,,,,,,,6q4[4:1],,,,1,,1-5[8:1],,,,5-2[8:1]*-8[8:1],,,,,,,,37,,6,,5,,4<8[8:1]*q1[8:1],,,,,,,,2p4[4:1],,,,8,,8<5[8:1]*>3[8:1],,,,8b,,,,4p8[8:1],,4,,5,,6,,7<4[8:1],,7,,1>4[8:1],,,,7<4[8:1],,,,1,,1,,2/8<5[8:1]*>3[8:1],,,,8b,,,,4q8[8:1],,4,,3,,2,,1>4[8:1],,1,,7<4[8:1],,,,1>4[8:1],,,,7<4[8:1],,7,,3,,2,,1>4[8:1]*q5[8:1],,,,,,,,
{4}8q6[8:1],,1>4[8:1]*q5[8:1],,8q6[8:1],,1>4[8:1]*q5[8:1],,8q6[8:1],,
{8}1>5[4:1],1,5p8[4:1],6h[4:1],,,7-3[8:1],,1b/7b,,2,6/5>2[8:1],,8,7-3[8:1],,1b/7b,,2,6/5>2[8:1],,8,7-3[8:1],7,1b/7b,,2,6/5>2[8:1],,8,7-3[8:1],,1b/7b,,2,6/5>2[8:1],,8,7-3[8:1],6,7b/1b,,2,6/5-1[8:1],,8,7-3[8:1],,1b/7b,,2,6/5-1[8:1],,8,7-3[8:1],7,1b/7b,,2,6/5-1[8:1],,8,7-3[8:1],,1b/7,1,2,2h[8:1],
{24}3,4,5,6,7,8,1/4-1[8:1],,,
{8},4/8-4[8:1],,1,2-6[8:1],,6,7-3[8:1]*-4[8:1],,7b,,
{16}2h[8:1],,4,3,4,,7h[8:1],,5-1[8:1],6,5,,7,,,,6h[8:1],,5,7,5,,3h[8:1],,4-8[8:1],2,4,,3,,,,4h[8:1],,7,5,6,,6h[8:1],,2,4,3,,6>4[8:1],,
{8},2,1q5[8:1],,5,6<1[8:1],,5b/6b,,
{16}2h[8:1],,4,3,4,,7h[8:1],,5-1[8:1],6,5,,7,,,,6h[8:1],,5,7,5,,3h[8:1],,4-8[8:1],2,4,,3,,,,4h[8:1],,7,5,6,,6h[8:1],,2,4,3,,
{8}6-4[8:1],,64,3>8[8:1],,34,5-1[8:1],,5/2h[4:1]
,,
{16}7h[8:1],,5,6,5,,2h[8:1],,4,3,4,,2h[4:1]/5,,,,6h[8:1],,5,7,5,,3h[8:1],,4,2,4,,5/1h[4:1],,,,6h[8:1],,2,4,3,,3h[8:1],,7,5,6,,
{8}2-6[8:1]/6,,1,8-4[8:1],,4,3>8[8:1],,4v1[8:1]*v7[8:1],,,,8,8,26,,3>8[8:1]/5<8[8:1],,,,4,4,3h[8:1]/5h[8:1],,1s5[4:2]/7z3[4:2],,,,,,,,4h[16:8],,,,
{8}1w5[8:1],28,,,37,6,25,
{16}3,4,3,4,3,,2<4[4:1]/5,,6,,72,,,,8,,56,,,,1,,34,,5,,26,,3,,74,,6,5,6,5,6,,4/7>5[4:1],,3,,27,,,,1,,34,,,,8,,56,,4,,37,,6,,25,,3,4,3,4,3,,2-6[8:1]/5,,6,,2/7h[4:1],,,,3,,.4/2h[4:1],,,,6,,57,,8,,3>5[4:1],,,,4,,4h[4:1],,,,1,,26,,3,,47,,6,,5,,47,,2,1,2,,3b/8b,,7,7,5<8[8:1]*>2[8:1],,,,5b,,,,1-5[8:1],,1,,8,,7,,6<1[8:1],,,,56,,4>1[8:1]
,,,,45,,6,,,,37,,6,,25,,3,4,3,4,3,,25,,6,,4/7<4[8:1]
,,,,78,,1>4[8:1]
,,,,18,,7,,6,,56,,56,,47,,3,4,3,4,3,,25,,6,,4/7-4[8:1]
,,,,73,,2-5[8:1]
,,,,52,,6,,7,,8
,,57,,3,,24,,6,6,5,,47,,6,6,5,7,2,8,3,4,1,8,2-6[8:1],7,4,5,2b,,,,7,,56,,45,,34,,6,6,5,5,4,4,3,3,7,6,5,4,1,2,3,4,8,8,5,5,6,6,3,3,8h[8:1],,6h[8:1],,4h[8:1],,2h[8:1],,8,7,6,5,8,1,2,3,6h[8:1],,
{32}1,2,,,7,6,,,2,,,,5h[8:1],,,,2,3,,,8,7,,,3,,,,
{16}6h[16:3],,,5h[16:3],,,4,,2h[16:3],,,1h[16:3],,,8,,7h[16:3],,,5h[16:3],,,6-4[8:1],,3-8[8:1],,6,,3,,5,,2,4,2,4,1,8,1,8,3,4,3,4,1,7,1,7,2,3,4,5,7,6,5,4,1,2,3,4,7,6,5,4,2h[8:1],,4,,5/3h[16:3],,,4,,6,5,,47,,6,,5,,4,,6h[16:3]/3,,,5,,3,4,,25,,4,,7,5,7,5,7,,2,4,2,4,2,,6,5,6,5,6h[8:1],,7h[8:1],,8h[8:1],,1h[8:1],,2h[8:1],,3h[8:1],,4h[8:1],,5h[16:4],,6,7,8,1,2,3,4h[8:2],,5,6,7,8,1,2,3h[8:2],,4,5,6,7,8,1,2,,1,2,3,4,6,7,8,1,
{24}3b,8,3,8,3,8,3,8,3,8,3,8,3,8,3,8,3,8,
{8}2-6[8:1],,2b/8b,,7,56,
{16}3,4,1,,7-3[8:1],8,7,8,7b,,,,
{8}2h[8:1],
{16}6,5,6,,47,,3,,4,,2b/5b,,6,,7h[8:1],,3,4,3,,25,,6,,5,,4b/7b,,3,,2h[8:1],,6,5,6,,47,,3,,4,,2b/5b,,6,,7h[8:1],,3,4,3,,25,,6,,5,,4b/7b,,3,,2h[8:1],,
{16}6,5,6,,7h[8:1],,4-1[8:1],,5,,4b/6b,,,,7h[8:1],,3,4,3,,2h[8:1],,5-8[8:1],,4,,3b/5b,,3,,2h[8:1],,6,5,6,,7,,3,4,3,,25,,6,,47,,47,,
{24}6,5,4,3,2,1,8/5-8[8:1],,,,,,
{16}2b-5[8:1],,,,,,7b-2[8:1],,,,,,4b-7[8:1],,,,,,1b>4[8:1],,,,,,6b-1[8:1],,,,5,,,,8bV63[4:12]/4bV27[4:12],,,,
E
