&title=逆光
&artist=Ado
&first=0
&des=Sennya
&clock_count=4
&lv_5=13
&inote_5=(145){4},,,,
{8}
1h[8:3],,B1,2h[8:3],,E2,3h[8:2],,8h[8:3],,B8,7h[8:3],,E8,6h[8:2],,2h[8:3],,B2,3h[8:3],,E3,4h[8:2],,7h[8:3],,B7,6h[8:3],,E7,
{4}
5-8[4:2],1,1,1,1-4[4:2]/8,8,8,8,8^5[4:2]/4,4,4,4,
{8}4hx[8:3],5hx[4:1],,,{16}27,,1,8,1,8,1V36[4:2],8,1,,
{8}
7,,,6pp5[4:1],,5,,,5h[4:1],,3,,2^4[4:1],,6,7,8V62[4:1],,3,2qq4[4:1],,2,,,4h[4:1],,5qq3[4:1],,3-7[6:1],,8V26[4:2],,7,,6pp5[4:1],7,,7,,,3h[4:1],,5,,7^5[4:1],,3,2,1V38[4:1],,8pp4[8:3],6,,6,,,5h[4:1],,2q8[4:1],,8-4[6:1],,8xw4[4:1],,,,,
1h[8:1],8,1h[8:1],8,1h[8:1],7,1h[8:1],6v3[8:1],1h[8:1],6,,2,2,8h[4:1],,2,8h[8:1],3-7[8:1],8h[8:1],3qq5[2:1],8h[8:1],3,,,,,,,,,,
5,1h[8:1],6,1h[8:1],7,1h[8:1],7,1h[4:1],,7h[4:1],,1,8<1[2:1]p4[4:1],1,8,,,,,,,
,,,5^8[8:1],3,2,1^4[8:1],8,7,6,,,
{16}
B2/E2,,4,3,E1/B1,,3,4,,4,3^1[4:1],,,,8,,7,,6-2[8:1],,5,,7,6x,,,1,,,,
{8}
8-4[8:1],1-3[8:1],8-6[8:1],1-5[8:1],8,1,
1b/8b,,27,,3v8[4:1]/6v1[4:1],,,,,
2bqq4[4:1]/7b,,,5,7,,,27,,36,,4h[8:3]/5,,3,2,,8pp5[4:1],,,3,2,,,
8h[4:1],,7,7h[4:1],6,6h[4:1],5,5,
24,35,4^1[8:1]/6p1[8:1],57,46,,4^1[8:1]/6p1[8:1],,46,,4^1[8:1]/6p1[8:1],,46,,46,7,8,24,3q8[8:1]/5^8[8:1],46,35,,3-8[8:1]/5-8[8:1],,35,,35,,
1b,,2b/8b,3b-1[8:1]/7b-1[8:1],4b/6b,,,,
8h[8:3],2h[4:1],,,17,,86,,75,,6,4qq8[4:1],,8V63[4:1],,,5,7,,,
1h[4:1],,2,2h[8:1],3,3h[8:1],4,4,
75,64,3q8[8:1]/5^8[8:1],24,35,,3q8[8:1]/5^8[8:1],,35,,3q8[8:1]/5^8[8:1],,35,,35,2,1,57,4^1[8:1]/6p1[8:1],35,46,,4-1[8:1]/6-1[8:1],,46,,46,,
8b,,1b/7b,2bv8[8:1]/6bv8[8:1],3b/5b,,,,1h[8:3],7h[4:1],,,82,,13,,24,,3,5pp7[36:4]^6[36:1]p1[36:4],,1V36[4:1],,,4,2,,,
8h[4:1],,7,7h[4:1],6,6h[4:1],5,5,46,57,6^3[8:1]/8p3[8:1],71,68,,6^3[8:1]/8p3[8:1],,68,,6^3[8:1]/8p3[8:1],,68,,68,1,2,35,4^1[8:1]/6p1[8:1],57,46,,4-1[8:1]/6-1[8:1],,46,,46,,7b/3b,,2b/8b,,1b^4[2:1]q5[2:1]^8[2:1]q1[2:1]V35[2:1]V71[2:1],
,,,,,,,,,,,,,,,,,,,,,,,,8,,7,,8,,
{16}
2-5[8:1],,1,,,,,,8,1,7,,4,5,4,6,4^1[8:1],,3,,,,,,1,8,2,,8,1,7,1,8^3[8:1],,2,,,,,,4,5,3,,5,6,4,7,5-1[8:1],,4,,,,,,3,4,2,,4,5,,E5/B4/B5,,5,4,,
{8}
2h[4:1],,C/B1,2,2,3,2/C/B2,1,,2,C/B3,5,,6,7/C/B4,6,7,,C/B5,7,7,6,7/C/B6,8,,7,C/B7,2,,3,C/B8,4,2h[4:1],,C/B1,3,2h[4:1],,C/B2,2,1,,{12}2/C/B3,,3,,4,,{8}C/B4,4,4h[4:1],,C/B5,3,3h[4:1],,C/B6,,,,C/B7,,,,C/B8/
3q4[4:1],,4<8[4:1],,8p3[4:1],,8,,6p5[4:1],,5>1[4:1],,1q6[4:1],,1,,2p1[4:1],,1<5[4:1],,5q2[4:1],,5,,7q8[4:1],,8>4[4:1],,4p7[4:1],,4,,1-4[4:1],,1,,8-5[4:1],,8,,1^4[4:1],,1,,8^5[4:1],,8,,
{16}
,,1,,1,8,1,8,1,8,1,8,1,8,1,8,1-5[8:1],8,1,8,1,,,,
{4},,,,
{8},5bw1[4:1]b,,,,,7b-4[8:1]/3b-8[8:1],,,,1qq4[4:1]/5b,,4<8[4:1],,8q4[4:1],,4,,,
8,1w5[4:1],,,,,6h[4:5],8,,,1,,2,,4,,7,8,71,82,1q6[8:1]/3^6[8:1],82,13,,1q6[8:1]/3^6[8:1],,13,,1q6[8:1]/3^6[8:1],,13,,13,4,5,68,7q4[8:1]/1^4[8:1],82,17,,7v4[8:1]/1-3[32:3]^4[32:1],,71,,71,,8b,,7b/1b,6bV48[4:1]/2bV48[4:1],5b/3b,,,,7-4[8:1],,,,1h[4:1],,3h[4:1],,4h[4:1],,5,6,,7-4[8:1],,,2,1-5[8:1],,,
8h[4:1],,7,7h[4:1],6,6h[4:1],5,5,
24,35,4^1[8:1]/6p1[8:1],57,46,,4^1[8:1]/6p1[8:1],,46,,4^1[8:1]/6p1[8:1],,46,,46,7,8,24,3q8[8:1]/5^8[8:1],46,35,,3v8[8:1]/5-7[32:3]^8[32:1],,35,,3v8[8:1]/5v8[8:1],,35,,17,,
2h[8:15]/6,,,1,,8,,1,,8,,1,,8,7,6,,
7h[4:7]/3,,8,,5,,8,,5,,8,,5,4,3,,
3h[4:7],,4,,1,,4,,1,,4,,1,8,7,,
2h[4:3],,,,6h[4:2],,,,1-5[8:1],,8-6[8:1],,2-4[8:1],,1-5[8:1],,,,E
