&title=GÜRIGÜRI
&artist=sasakure.UK feat.Cana
&first=0
&des=かなしい花火
&lv_5=13
&inote_5=(110)
{1},
{8}
6h[8:2]/4h[4:1],,,,64,,,,3h[4:1]/5h[4:1],,,,35,,,,7h[4:1]/4h[4:1],,,,74,,,,1h[4:1]/5h[4:1],,,,15,,,,6-4[8:1]/1,,3h[4:1],,B1/B2/E2,,3x/4x,,2-6[8:1]/5,,4h[4:1],,B7/B8/E8,,4x/6x,,8-4[8:1]/2,,3h[4:1],,E6/B5/B6,,4x/3x,,6/5qq1[2:1],,,,,,,,
{32}
7,8,7h[16:3],,,,,,8-4[8:1],,,,1,,,,2,,,,,,,,35,,,,,,,,2,1,2h[16:3],,,,,,1-5[8:1],,,,8,,,,7,,,,,,,,64,,,,,,,,3,4,3h[16:3],,,,,,4<1[32:5],,,,3,,,,2,,,,,,,,35,,,,,,,,6,5,6h[16:3],,,,,,5>8[32:5],,,,6,,,,7,,,,,,,,64,,,,,,,,
{8}
5-8[8:1]/7,,45,,4-1[8:1]/2,,54,,7h[4:1]/5,,5xq3[32:5],,4h[4:1],,2x,,1h[8:1]/3h[8:1],,8h[8:1]/2h[8:1],,7^4[8:1]/1^4[8:1],,17,,C/B7/E7/B2/E3,
{16}
,5xpp8[16:7],4xqq1[16:6],,,,,,,,C,,,,
{8}
5-8[8:1]/7,6,45,,4-1[8:1]/2,3,54,,7h[4:1],6,5xq2[32:5],5x,4h[4:1],,3x,,1h[8:1]/3h[8:1],,8h[8:1]/2h[8:1],,1pp1[4:1]/7,,6,,B7/E7,,6b<2v4b[16:5],,5hb[4:1],,,,
{8}
7x/E4/B3,,7x/E4/B3,,7x/E4/B3,,7x/E4/B3,,A1/6x,,2x/E6,,7x/B4,,C,,3x/B8/E8/B7,,3x/B8/E8/B7,,3x/B8/E8/B7,,3x/B8/E8/B7,,Ch[4:3]f/E7/B7/B6/B2/E3/B3,,E8,,E2,,E6,,
{8}1qq4[2:1],,,,6pp3[2:1],,,,5h[2:1],,,,E1,,4x/8x,,5pp4[16:6],,,,1pp8[16:6],,,,6h[2:1],,,,{32}E1,C,E5,,,,,,2bx/7bx,,,,,,,,
{16}
6^1[8:1],,5,5,6,,2,,2v4[8:1],,8,8,2,,,5x,5V71[16:3],,3,3,5,,4,,4v5b[8:1],,,,7,,,,3^8[8:1],,4,4,3,,7,,7v5[8:1],,1,1,7,,,4x,4-8^1-5b[16:5],,,,6hx[2:1],,,,,,,,E1f,,,,6b^3[2:1],,,,,,,,,,,,,,,,6b>2[2:1]*p2[2:1],,,,,,,,,,,,,,,,5b>1[2:1]*q1[2:1],,,,,,,,,,,,,,,,5b<1[2:1]*>1[2:1],,,,,,,,,,,,,,,,
{8}
8-5[8:1]/4h[4:1],,8x,,4h[4:1]/2-6[8:1],,2x,,5^8[8:1]/4h[4:1],,5x,,2p6[8:1]*q6[8:1],,,,7h[4:1]/5h[4:1],,,,1h[4:1]/3h[4:1],,,,6h[4:1]/8-5[8:1],,,,4-1[8:1]/2h[4:1],,,,
8-5[8:1]/4,4hx[8:1]/8x,,,4/2-6[8:1],4hx[8:1]/2x,,,5^8[8:1]/4,4hx[8:1]/5x,,,2p6[8:1]*q6[8:1],2x,,,7/5,7h[8:1]/5h[8:1],,,1/3,1h[8:1]/3h[8:1],,,6/8-5[8:1],8/6h[8:1],,,4b-1[8:1]*-8[8:1],,,,
6hx[4:3],,7x,,5x,,7x,,6x/B2,,3x/E7,,8x/B4,,C,,3hx[4:2],,2x,,4xz8[4:1],4?z8b[220#2:1]*s8[220#2:1],,,,,1/6,,1b<1[4:4],,,,C,,,,1x<1[1:1],,,,C,,,,C,,,,C,,Cf,,,,,,
{8}
5h[8:1]/4,,5h[8:1],,5h[8:1]/B3,,5h[8:1],,5h[8:1]/4,,5h[8:1],,5h[8:1]/E3,,5h[8:1],,
3h[8:1]/5,,3h[8:1],,3h[8:1]/B5,,3h[8:1],,3h[8:1]/5,,3h[8:1],,3h[8:1]/B6,,3h[8:1],,
7<1[4:6]/2,,3h[8:1],,4h[8:1],,6h[8:1],,8h[8:1],,2h[8:1],,4h[8:1],,5,,
1>8b[4:6]/6,,5h[8:1],,4h[8:1],,2h[8:1],,1h[8:1],,C,,6h[8:1],,6,,
6/5h[8:1],,5h[8:1]/4,,5h[8:1]/7,,5h[8:1]/3,,5h[8:1]/8,,5h[8:1]/2,,1-5[8:1]/5-2[8:1],,,,
1h[8:1]/6,,8h[8:1]/3,,1h[8:1]/6,,8h[8:1]/3,,6pp1[16:12]/1pp4b[16:12],,16,,,,,,,,,,,,,,,
4hx[8:5]/5hx[8:5],,,,,,,
4bqq4[16:7],,,,8qq8[16:7],,,,2h[2:1],,,,E5,,3x/7x,,6pp1[2:1],,,,5p2[16:8],,,,8h[2:1],,,,Cf,,2bx/7bx,,
{16}
3^8[8:1],,4,4,3,,7,,7v5[8:1],,1,1,7,,,4x,4V28[16:3],,6,6,4,,,,5-7b[8:1]*-1b[8:1],,,,5,,,,6^1[8:1],,5,5,6,,2,,2v4[8:1],,8,8,2,,,5x,5p4^1b[16:6],,,,2hx[2:1],,,,,,,,Cf,,,,
{16}6x^1[8:1]/8x-3[8:1],,,,68,,,,4^1[8:1],,5,,6h[4:1],,,,8-4[8:1],,1-3[8:1],,8,,1,,5x<1[8:1]*q1[8:1],5x,,,5b,,,,2-4[8:1]/4-6[8:1],,,,42,,,,1<3[16:3],,4,,2h[4:1],,,,8-4[8:1],,3-1[8:1],,8,,3,,6xq3[32:5]*<3[32:5],6x,,,6bx,,,,
2-5[8:1]/5-8[8:1],,,,25,,,,1<2[16:3],,3,,4h[4:1],,,,1-5[8:1],,8-6[8:1],,1,,8,,4>8[8:1]*p8[8:1],4x,,,4b,,,,7-5[8:1]/5-3[8:1],,,,7b/5b,,,,8x>6[16:3],8x,,,B7/B6/E7,,,,1bx-5[8:1],,7x-3[8:1],,1x,,7x,,4bx<1[4:1],,,,1bp6b[16:10]*>5[4:1]/D5f,,,,,,,,,,,,,,,,,,,,
{32}
3,4,3h[16:3],,,,,,4-8[8:1],,,,5,,,,6,,,,,,,,71,,,,,,,,7,8,7h[16:3],,,,,,8-4[8:1],,,,1,,,,2,,,,,,,,35,,,,,,,,2,1,2h[16:3],,,,,,1-5[8:1],,,,8,,,,7,,,,,,,,64,,,,,,,,3b,4,3h[16:3],,,,,,4<1[32:5],,,,3,,,,2,,,,,,,,35,,,,,,,,6b,5,6h[16:3],,,,,,5>8[32:5],,,,6,,,,7,,,,,,,,64,,,,,,,,7b,8,7h[16:3],,,,,,8>5[32:5],,,,7,,,,6,,,,,,,,71,,,,,,,,2b,1,2h[16:3],,,,,,1<4[32:5],,,,2,,,,3,,,,,,,,2b/8b,,,,,,,,
{8}
6h[4:6]/5,,,,3,,,,1,,,,7,,,,1h[4:6]/8,,,,6,,,,4,,,,2qb7b[8:1],
