&title=The Gong of Knockout
&artist=Fear, and Loathing in Las Vegas
&first=0
&des=BAKI HANMA
&lv_6=14+
&inote_6=(180)
{1},
{32}
27,36,4h[16:11]/5,,,,,,{16}5,,,,5,,,,5,,,,4/5h[4:3],,,,4,,,,4,,,,4,,,,
3h[4:1]/4,,,,4,,,,5h[4:1]/4,,,,4,,,,2/4,,,,4/5,,,,7/5,,,,1/8,,2/7,,
3,,3h[16:3],,,4h[16:3],,,5h[16:3],,,6h[16:3],,,8,,
8-2[16:1],,,7,,,6-8[16:1],,,4,,,2,,2,,1,3,1,,8,6,8,,
4,5,3,4,2,5,3,6,4,7,3,7,3,7,3,7,2,8,2,8,{32}1,2,3,4,5,6,7,8,
{16}
1h[16:2]/6h[16:2],,,3h[8:1]/8h[8:1],,,1h[8:1]/5h[8:1],,,3h[8:1]/7h[8:1],,,
2/6,,2/6,,{12}2,4,3,7,5,6,{16}1/5-1[12:1],,,8b,,,,,
6/1,,2/7,,3/8h[4:1],,,,4,,7,5,6,,8,,1/6,,2/7,,3/8h[4:1],,,,
4,,7,5,6,,1,,2/5,,3/6,,4/7h[4:1],,,,5,,8,6,7,,2,,3-7[8:1]/8,,3/8,,
3/8-4[8:1],,,,8w4[8:1],,,,8b,,,,
16,,27,,38,,4,,7,,7,5,,5,8,,4/7,,3/6,,2/5,,1,,4,,4,2,,2,1,,
3/8,,2/7,,1/6,,5,,2,,2,4,,4,1,,3/5,,4/6,,8,,8,,4/6,,3/5,,1b<3[2:1],,,,
6h[2:1],,,,,,,,,,,,7V51[8:4],,,,3h[4:2],,,,,,,,,,,,2,,,,
3/4-6[8:1],,,,,,,,3/4-7[8:1],,,,,,,,3/4pp8[2:1],,,,,,,,,,,,,,,,
2>5[4:1]/6h[16:3],,,,,,8,,8,,,,5,,,,7<4[4:1]/3h[16:3],,,,,,1,,1,,,,4,,
,,2h[4:1]/5,,,,6,,7h[4:1]/4,,,,3,,2/5,,16,,
{24}8,7,6,5,4,3,{16}2/6,,3V52[6:1]/7V51[6:1],,,,3b/7b,,,,,,
3/8,,6,5,7,,1/6,,
{24}1,2,3-8[16:1],4,,,7,6,5,,,,1,2,3v8[16:1],4,,,7,6,5,,,,
1,2,3V17[8:1],4,,,7,6,5,,,,{16}3b,,1-5[8:1],,4,,1,,
6-2[8:1],,7-1[8:1],,6,,7,,3<6[8:1],,1,,3,,{24}7,8,1,2,3,4,5,6,7,
{16}8/1v6[8:1],,,,2b/1b,,,,4,,3/8,,
{24}8,7,6-1[16:1],5,,,2,3,4,,,,8,7,6v1[16:1],5,,,2,3,4,,,,
8,7,6V82[8:1],5,,,2,3,4,,,,{16}6b>1[6:1],,,,8,,7,,6-2[8:1],,,8,6,,
1,,1<6[8:1]*>4[8:1],,5,,1,,,,2/8,,4/6,,2bv5[8:1]/8bv5[8:1],,,,
8<2[2:1]/2,,,,,,,,,,,,,,,,
7h[16:3],,,5h[16:3],,,4h[16:3],,,2,,,1,,1,,4,,5,,
6h[8:1]/4h[8:1],,,6/4,,,3h[8:1]/5h[8:1],,,3/5,,,
4-6[16:1],,,2,,,1-3[16:1],,,7,,,5,,5,,
1,4,3,4,3,4,3,4,2,5,4,5,4,5,4,5,3,6,5,6,5,6,5,6,4,7,6,7,6,7qq1[8:5],6,7,
5b,,,,,,,,,,,,,,,,
2-6[8:1]/1-5[8:1],,,,1/2,,,,3/7,,3/7,,{24}
8,7,6,1,2,3,8h[4:3]/4b,,,,,,,,,,,,,,,,,,
2,3,4,1,8,7,6b/2h[4:3],,,,,,,,,,,,,,,,,,
7,6,5,8,1,2,3b/7h[4:3],,,,,,,,,,,,,,,,,,
2,3,4,8,7,6,2,3,4,,,2,3,4,,1,,,7,6,5,,,7,6,5,,8,,,
7b/1h[4:3],,,,,,,,,,,,,,,,,,
4,5,6,2,3,4,5b/8h[4:3],,,,,,,,,,,,,,,,,,
5,4,3,7,6,5,4b/1h[4:3],,,,,,,,,,,,,,,,,,
5,6,7p4[24:16],2p1[24:15],3,4,,,,,,,{4},,,
{24}2-8[8:1],3,4,{16},7,2,,5,,{24}1-7[8:1],2,3,{16},6,1,,4,,
{24}1,2,3,6,7,8,1,2,3,6V41[8:1],7,8,1-6[8:1]*-5[8:1],2,3,{16}6b,,,,,,
{16}3h[8:1],,6,2h[8:1],,4,1,,6h[8:1],,3,7h[8:1],,5,8,,
3/7p3[8:1],,2,,7/8,,1<6[8:1],,2v5[8:1],,1b,,2b,,,,
{24}7-1[8:1],6,5,{16},2,7,,4,,{24}8-2[8:1],7,6,{16},3,8,,5,,
{24}8,7,6,3,2,1,8,7,6,3V58[8:1],2,1,8-3[8:1]*-4[8:1],7,6,{16}3b,,,,,,
{16}6h[8:1],,3,7h[8:1],,5,8,,3h[8:1],,6,2h[8:1],,4,1,,3b/7b,,
6,5,6,4,5,4,5,3,4,2,6,5,47,,
{32}1b,2b,3b,4b,5,6,7,8,1,2,3,4,5,6,7,8,1/5b,6b/2,7b/3,4/8b,5/1h[8:9],6,7,8,,2,3,4,5,6,7,8,,2,3,4,5,6,7,8,,2,3,4,5,6,7,8,,2,3,4,5,6,7,8,
{8},,6/2-5[8:1],,21,7-3[8:1],,7/8,1,2,3/4-8[8:1],,2/4,1,1,
{16}7,8,6,1,5,2,
{32}5b,6b,7b,8b,1,2,3,4,5,6,7,8,1,2,3,4,5,6,7,8,1,2,3,4,5b,6,7,8,1,2,3,4,
5/1b,6/2b,7/3b,8/4b,1/5h[8:5],2,3,4,,6,7,8,1,2,3,4,,6,7,8,1,2,3,4,,,,,,,,,
{8}7V51[6:1]/4,,7/8,2V48[6:1],,2/1,8,6,
{16}
5,1,6,2,5,1,6,2,5,1,7,3,5,1,7,3,
{48}5b,6b,7b,8b,,
{16}
