&title=FestivaLight[DX]
&artist=霜月はるか
&first=0.06
&des=Jan03
&clock_count=4
&lv_5=12+
&inote_5=(125)
{1},,
{4}1>4[12:3],4<8[12:3],,,
{12}2/3,,4/5,,6/7,,3/6,,,8<5[12:1]/1>4[12:1],,,
{1}1b/8b,
{2}C,C,{1}8z4[8:3]b*-5[8:3]b/Cf,
{4}C,5qq4[8:1]b,5pp6[8:1]b,,Cf/2V46[4:1]b,8,2V86[6:1]b,2,1>4[8:1]b,1,1w5[8:1]b,1b,
{4}2<4[12:6]*<6[12:4]/Cf,,2,3,1-5[8:1]*-5[8:1]/6,1/3,B7,B3,2<7-3<6[8:5]/Cf,,6,7,8>3[8:1]`1<6[8:1],1/8,B2,E7,
{4}6p5[8:3]b,2,3,3,
{4}6-8[8:1],2qq6[12:4]b,2,7,
{4}3V52[12:5],6-1[6:1],,,7-2[12:1]/3-6[12:1],,2-7[12:1]/6-3[12:1],,
{48}E4/E6,B3/B6,B2/B7,E2/E8,,,,,,,,,{4}4-1[6:1]/5-8[6:1],4/5,,6h[12:11],2>5[8:1],2,5h[6:1],
{12}2>5[12:1]b,,2,1v6[12:1]b,,1,2>5[12:1]b,,2,1v6[12:1]b,,1,2>5[12:1]b,,2,1,,1,3<6[12:1]b*-6[12:1]b,,,,,,
{12}7<4[12:1]b,,7,8v3[12:1]b,,8,7<4[12:1]b,,7,8v3[12:1]b,,8,7<4[12:1]b,,8,7,,8,1>4[12:1]b,,,C,,,
{12}6-4[12:1],,6,B3,,7,3-5[12:1]*-5[12:1],,3,B6,,2,
{4}7<4[8:1]/3,C,2>5[8:1]*>5[8:1]/6,C,
{4}6h[4:1],C,3h[4:1],C,
{12}6h[4:1],B7,B8,B2,,,6h[4:1]/2>5[8:1]b,C,B1,,,,
{4}7>4q6[4:3],C,,6<4[4:3],,6h[4:1],,6,
{4}2<5p3[4:3],C,,3>5[4:3],,3h[4:1],,3,
{48}8b,,,,,,,,8b,,,,,,,8x,7x,6hx[48:3],,,2hx[48:4],,,,
{12}5hx[6:1],,3hx[6:1],,7hx[6:1],,1x,,{48}1x,,2x,3hx[48:5],,,,,6x<3[12:4],,,,,,,,{4},,
{48}8h[48:10],,,,,,,,,,,,
2bx,,3x,,4x,,5x,,6x,,7x,,,
2bx,,3x,,4x,,5x,,6x,,7x,,
{4}2bhx[48:12],5bhx[48:8],{48},,,,,,,,,,,,,,,5hx[48:8],,,,,,,,,,,,,,,,,,,,
{6}8bx/6x,7x/5x,6x/4x,5bx/3x,4x/2x,3x/1x,
{4}1<6[4:1]b,6>3[4:1]*>3[4:1],3>8[4:1]*>8[4:1],8<4[4:1],4>8<4[2:1],,4>4>4[4:3]b,,,,Cf,
{12}4,5,3,
{4}3qq6[4:1]/4,6<1>5[2:1],1,5<1[4:1],,
{12}5x,6x,7x,8x/4-8[12:1],,,5,,,
{4}7-4[12:1]/5v8[12:1],Cf,2-5[12:1]/4v1[12:1],Cf,
{12}6hx[6:1],B6,B5,3hx[6:1],B3,B4,{4}4-1[8:1]/5-8[8:1],4/5,
{4}7/5-1[12:1],6,2/4-8[12:1],3,1/7p3[12:1],{12}8x,1x,2x,{4}7/2q6[12:1],1,
{12}5qq5pp5[8:5],,,B2,B1,B8,B7,,,,,,
{4}2V86[8:1],2/4-1[8:1],4V68[8:1],4/3-1[8:1],3/4-8[8:1],3,1v3[8:1]/5v3[8:1],,
{4}7-4[12:1]/5v8[12:1],Cf,2-5[12:1]/4v1[12:1],Cf,
{12}6hx[6:1],B6,B5,3hx[6:1],B3,B4,{4}4-1[8:1]/5-8[8:1],4/5,
{24}6h[4:1],,,,E6,B4,B3f,,,,,,3h[4:1],,,,E4,B5,B6f,,,,,,
{12}7bx/8bx,,1x/3x,,8x/6x,5x,3bx>8[8:1]`4bx<7[8:1]*<7[8:1],,,3x/4x,,,
{4}3-1[8:1],7pp3[12:4]b,7,2,
{4}4-1[8:1],7pp5[12:4]b,7,3,
{12}2/3,,4/5,,6/7,,2/4,,4/5,,5/7,,
{1}4bq5[2:1]/5b<4[2:1],
{12}B7,C,B2,B8,B1,B6/B3,C,E6,E4,C,
{6}6hx[4:1],{48},,,,B2,,B3,,,B4/5-8[24:21],,,
{4},,,,,,E
