&title=已経忍不住了
&artist=good-cool feat. ミッキー・マサシ
&first=0.63
&des=DX
&wholebpm=180
&shortid=90003
&genre=Bemani
&cabinet=DX
&version=maimai DX n' Music
&des_5=DX
&lv_5=13
&inote_5=(180){1},
{8}1,1,1,1,2,,2,,
4,,4,,2h[2:1],,,,
8,4,4,6,3,3,4,2,
2,2,1,,1b/8b,6,5,7h[8:3],
,4,3,2,6h[8:3],4,3,2,
5h[8:3],3,2,1,4h[8:2],3,2,1b/8b,
,6,5/7,,5,4,3/5,,3,2,1/3,,1,8,1/7,2h[8:3],
,5,6,7,3h[8:3],5,6,7,
4h[8:3],6,7,8,5h[4:1],6,7,8,
1h[8:1],2h[8:1],4h[8:1],3h[8:1],7h[8:1],8,1b>7[4:3]/6b>8[4:3],1b/6b,
,,,,,,,,
8,8,1-5[8:1],7-3[8:1],1,7,,5>1[4:1],
,1s5[8:3],,7-3[8:1],,,,,
1,1,8-4[8:1],2-6[8:1],8,2,,4v6[4:1],
,8v2[4:1],,,,,,,
1,1,2,3h[8:3],6,5,4h[8:5],2,
1,1,2,3h[8:3],5,6,7,7,
1qq5[1:1]/8pp3[1:1],,1/8,,,,,,
,,,,4,3,2,1,
8,8,7,6h[8:3],3,4,5h[8:5],7,
8,8,7,6h[8:3],4,3,2,2,
1,1-5[8:1],5>1[16:5]*<1[16:5],,,,,,
1/8,1/8,1/8,7,1/8,2,1b/8b,,
7h[4:1],8,1-5[4:1],1,5pp5[2:1]*qq5[2:1],,,,
,,,,5,6,7h[4:1],8,
1h[4:1],7,8h[4:1],1,2h[4:1],8,1h[4:1],2,
3h[4:1],1,2h[4:1],3,4,5,6,7,
2h[4:1],1,8-4[4:1],8,4pp4[2:1]*qq4[2:1],,,,
,,,,4,3,2,1>8[1.5##1]/8<1[1.5##1],
2h[8:7]/7h[8:7],,,,,,,,
,,,,,,,,
8p3[4:1],,3>8[4:1],,8-6[4:1],,5,4-2[4:1],
,,1h[4:1],,7h[4:1],,8h[4:1],,
1q6[4:1],,6<1[4:1],,1-5[4:1],,5qq7[2:1]*pp2[2:1],5,
,,,,,,,,
1,1,1,1,8,8,8,8,
2,2,7,7,3,3,6,6,
4/5,3b,3b,4/5,6b,6b,4/5,4/5,
3b,2/4,2/4,6b,5/7,5/7,1/8,1/8,
3h[8:1]/6,6,2h[8:1]/7,7,1-6[8:1]/8,8,1-4[8:1]/2,2,
1/3,3,2,1,8,7,6,4/5,
{16}4/5,,6,5,7,,4/5,,3,4,2,,1/8,,,,
{8}6h[4:1]/8h[4:1],,,4h[4:1]/6h[4:1],,,2/4,,
6h[8:1]/3,3,7h[8:1]/2,2,8-5[8:1]/1,1,8-3[8:1]/7,7,
6/8,6,7,8,1,2,3,4/5,
5h[8:1],4h[8:1],3h[8:1],2h[8:1],1h[8:1],8h[8:1],7h[8:1],6h[8:1],
{16}5,,4,5,3,,6,5,7,,1,,2/8,,3/7,,
{1}4qq5[4:11]/6pp5[4:11],
,,,
(90){32},,,,,,,,,,,,,,1bp6[1:2],,,,2bp7[32:65],,,,,3bp8[1:2],,,,,4bp1[32:63],,,,
,,,,,,,,,,,,,,,,,,,,,,,,,,,,,,,,
,,,,,,,,,,,4b,,,5b,,,,,,,,,,,,,,,,,,
(180){8},,,,,,,,
2/5,4,3,4,3/6,5,4,5,
6/8,6,6/8,6,5/6,,5/6,,
3/4,,3/4,,2b/8b,,,,
6/8,6,7/1,7,2/8,2,1/7,1,
5/6,5,4/3,4,4b/5b,,,,
7-5[8:1],5q1[4:1],7,1z5[8:3],,,,,
,,{12}4h[12:1],5h[12:1],3h[12:1],6h[12:1],4h[12:1],5h[12:1],3h[4:1],,,
{16}6,5,7,4,6,5,7,4,6,5,6,5,7,4,7>5[2:1],4,
{1}7b,
{8}1h[8:1]/3,2,1h[8:1]/8,7,5/6,5/6,4,5/6,
5/6,7,1h[4:1]/8-4[8:1],,8,,,,
8h[8:1]/6,7,8h[8:1]/1,2,3/4,3/4,5,3/4,
3/4,2,1-5[8:1]/8h[4:1],,1b,,,,
{1}4h[4:3]/5h[4:3],
{16}1/8,,6,5,7,,1/8,,3,4,2,,6,3,6,3,
{1}4h[4:3]/5h[4:3],
{16}1/8,,4,5,3,6,3,6,2,7,2,7,1,8,1,8,
{1}1h[4:13]/8h[4:13],,,
{16},,,,,,,,,,,,,1b/8b,,,
E
