&title=无限速
&artist=本兮/阿悄
&first=-0.06
&lv_5=13+
&des_5=小橘子
&inote_5=
(160){4},{16},,5/2,3/6,{4}7/4h[4:1],{8}7,5,
7,4,6,3,5,1,7,2,
6,4,5,3,6,2,8,3,
7,4,6,2,5,1-6[8:1],,1/7-3[8:1],
,7/4-8[8:1],,4/6,,,2,4,
2,5,3,6,4,8,2,7,
3,5,4,6,3,7,1,6,
2,5,3,7,4,8-3[8:1],,8/2-6[8:1],
,2/5-1[8:1],,5/3,,,2/4,5/1,
,5/7,{4}4/8,{8}4/5,1/7,,2h[8:1],
{16}6,7,{8}8-4-6[4:1],3-1[8:1],2,{4}3,{8}7/8,6/1,
,1/2,{4}3/8,{8}4/5,2/7,,8h[8:1],
{16}1,2,{8}3-7[8:1],6,3,{4}5w1[8:1],5,
3<6[8:1],{8}3,7h[4:1],,1,{4}5<8[8:1],
5-2[8:1],{8}7,6h[4:1],,2,{4}4q8[8:1],
2h[4:1],{8}7,1<6[8:1],,1>4[8:1],,1-6[8:1],
,1-4[8:1],,1-5[8:1],,1,{4}2,
6qq8[8:3],{8}6,2h[8:1],,2,{4}1pp1[4:1],
1,{8}5,5h[4:1],,3,{4}2-6-4-8[2:1],
2,7,6v3[8:1],{8}1,2,
,8-4[8:1],1-5[8:1],8,1,8,{4}6/1bp3[4:1],
6,6,{8}2/5bq7[8:3],2,,2,
,3h[4:1],,7-4[8:1],2-5[8:1],7,{4}2,
8v3>5[4:3],1,{8}1h[4:1],,,1,
,2-8[8:1],7-5[8:1],2,{4}7,4b-8[8:1]*v1[8:1],
4-2-6[4:1],4,{8}8b<3[8:3],8,,3q8[4:1],
,1,,1,2>5[4:1],5,{4}5p1[4:1],
{8}8<5[4:1],8,,3,,3v1[4:1],,,,4,
,4-8[8:3],,,{4}2,
,1>3[4:1],3<5[4:1],5<7[4:1],
7>2[4:1],2>5[4:1],5<8[4:1],8b>8[2:1],
,8b>8[2:1],,8b>8[8:3],
,Cf,{8}6,4,{4}6-1[8:1],
6/4b,{8}2-5[8:1],8,2-4-8[4:1],7,2,6,
7b-5[8:1],1,{4}2/7,{8}1-5[8:1],8,{4}1v4[8:1]/7v4[8:1],
1b/7b/Cf,{8}2-4[8:1],7,2-8[8:1],7,2-6[8:1],7,
{4}2/8bw4[8:1],8b,{8}3,5,{4}3-1[8:1]*-7[8:1],
3b/Cf,{8}8-6[8:1],2,8-4[8:1],2,8,1-3[8:1]*-4[8:1],
,1-7[8:1]*-6[8:1],,1,,,{4}4qq1[8:3],
6,{8}8-5[8:1],8,,1,,3-8-2[4:1],
5,3,{4}Cf,{8}7,5,{4}7-1-5[4:1],
3b/7,{8}4v1[8:1],6,4,8,7p3[8:1],1-5[8:1],
7,1,{4}8,{8}3-8[8:1],5,{4}3v5[8:1]/6v1[8:1],
3b/6b/Cf,{8}4,8,3,7-3[8:1],8,7/1-4[8:1],
8,1/7,{4}6,{8}3/6,2/7,{4}1-5[8:1]/8-4[8:1],
1b/8b/Cf,{8}2-5[8:1],8-6v4[4:1],2,8,,1-3<4[8:1]*-4[8:1],
,1-7<6[8:1]*-6[8:1],,1,,,{4}5qq1[8:3],
7,{8}8-6[8:1],8,,2-8-4[4:1],,5-1[8:1],
6,5<4[4:1],{24},,,,,,,,,,,,8/3,7/2,{6}1/6xh[24:13],
{24},,,,,,,,,{8}3h[8:1],4h[8:1],2h[8:1],5h[8:1],1h[8:1],
6h[8:1],8h[8:1],{4}7h[4:1],1h[4:1],8x<3[2:1],
,1x,2x>7[8:5],1xh[4:1],
,8xh[4:1],{16},,,,2,5,3,4,
2,5,3,4,2,5,3,4,3bx,2,1,8,6,5,7,4,
6,5,7,4,6,5,6bx,7,{4}8,{16}2x,,,2/4,
,,{8}3x/5,{16}2/8,,,4/6,,,{8}1x/7,{16}3/5,,,4/8,
,,{8}2x/5,{16}4/7,,,1x/6,,,{8}3x-8[8:1]*-8[8:1],{4}3/8,
7<5[8:1],{8}7,2h[4:1],,8,{4}4v1[8:1],
4-7[8:1],{8}2,3h[4:1],,7,{4}5p1[8:1],
7h[4:1],{8}2,8>3[8:1],,8<5[8:1],,8-3[8:1],
,8-5[8:1],,8-4[8:1],,8,{4}7,
3pp1[8:3],{8}3,7h[8:1],,7,{4}8qq8[4:1],
8,{8}4,4h[4:1],,6,{4}7-3-5-1[2:1],
7,2,3v6[8:1],{8}8,7,
,1-5[8:1],8-4[8:1],1,8,1,{4}3/8bq6[4:1],
3,3,{8}7/4bp2[8:3],7,,7,
,6h[4:1],,2-5[8:1],7-4[8:1],2,{4}7,
1v6<4[4:3],8,{8}8h[4:1],,,8,
,7-1[8:1],2-4[8:1],7,{4}2,5b-1[8:1]*v8[8:1],
5-7-3[4:1],5,{8}1b>6[8:3],1,,6p1[4:1],
,8,,8,7<4[4:1],4,{4}4q8[4:1],
{8}1>4[4:1],1,,6,,6v8[4:1],,,,5,
,5-1b[8:3],,,{4}8,
,1>3[4:1],3<5[4:1],5<7[4:1],
7>2[4:1],2>5[4:1],5<8[4:1],8b>8b[2:1],
,8b>8b[2:1],,8b>8b[8:3],
,Cf,{8}6,5,{4}4-1[8:1],
4/5,Ch[4:1],2-4v5-7b[2:1],8,
{8},,,,1,2,{4}3-8[8:1],
3/4,Ch[4:1],2-6b[8:1],7-3b[8:1],
1,1,{8}7,6,{4}5-8[8:1],
4/5,{8}3,3,2,2,,1s5b[4:1],
,6-2[8:1],,6,,,{4}5-8[8:1]/1v4[8:1],
1/5,{8}7v4[8:1]/3-8[8:1],2/6,{4}3/7,{8}2,7,
1-5[8:1],6,{4}1,{16}7x,5x,7x,5x,{8}7x-1[8:1],7,
2-6[8:1],2,5-8[8:1],5,1>4[8:1],1,6-2[8:1],6,
4-7[8:1],4,1-6[8:1],1,5>2[8:1],5,7-4[8:1],7,
1-5[8:1],1,8<5[8:1],8,2,{24}1b,2,3,,,,8bx/5bx,4x/7x,3x/6x,
,,,1bx/4bx,2x/5x,3x/6x,,,,8bx/5bx,4x/7x,3x/6x,{4}5-8[8:1],{8}2-8[8:1],2,
7-3[8:1],7,4-1[8:1],4,8<5[8:1],8,3-7[8:1],3,
5-2[8:1],5,8-3[8:1],8,4<7[8:1],4,2-5[8:1],2,
8-4[8:1],8,1>4[8:1],1,7,{24}8b,7,6,,,,1bx/4bx,5x/2x,6x/3x,
,,,8bx/5bx,7x/4x,6x/3x,,,,1bx/4bx,5x/2x,6x/3x,{32}7,8,1,2,3,4,5,6,{4}7bx/Cf,
,,,,{2}E4,
B2/B5,
B7/B4,E3/E7,
E1/E5,B3/B7,
B6/B2,3h[4:1]/C,
6h[4:1]/C,4h[4:1]/5h[4:1],
3h[4:1]/5h[4:1],2h[4:1]/5h[4:1],
1h[4:1]/Cfh[4:1],{8}2,3/7,{4}5-1[8:1]*-1[8:1],
5/3,{8}2-4[8:1],2,5<8[8:1],5,3-5[8:1],3,
6<1[8:1],6,4-8[8:1],4,5-1[8:1],5,2-5[8:1],2,
8-4[8:1],8,1>4[8:1],1,7,{24}8b,7,6,,,,1bx/4bx,5x/2x,6x/3x,
,,,8bx/5bx,7x/4x,6x/3x,,,,1bx/4bx,5x/2x,6x/3x,{4}4-1[8:1],{8}7-1[8:1],7,
2-6[8:1],2,5-8[8:1],5,1>4[8:1],1,6-2[8:1],6,
4-7[8:1],4,1-6[8:1],1,5>2[8:1],5,7-4[8:1],7,
1-5[8:1],1,8<5[8:1],8,2,{24}1b,2,3,,,,8bx/5bx,4x/7x,3x/6x,
,,,1bx/4bx,2x/5x,3x/6x,,,,8bx/5bx,4x/7x,3x/6x,,,,,,,{8}8>3[8:1],7,
6,5<8[8:1],4,3,2>5[8:1],1,{4}8,
1w5[8:1],1,3b/7b,{8}1>4[8:1],8,
7,6<1[8:1],5,4,3<6[8:1],2,{4}1,
E
&lv_6=13+
&des_6=大橘子VS小橘子
&inote_6=
(160){4},{16},,4,4,{4}5b/3h[4:1],{8}7-4[8:1],5,
7,2-6[8:1],4,2,8,{24}5,4,3,{8}2h[8:1],7-5[8:1],
4,7-3[8:1],2,7,1,1,6-3[8:1],3-8[8:1],
6,2,2,7,7,1-6[8:1],,1/7-3[8:1],
,7/4-8b[8:1],,4b/6,,,2-5[8:1],4,
2,7-3[8:1],5,7,1,{24}4,5,6,{8}7h[8:1],2-6[8:1],
5,2-4[8:1],7,2,8,8,3-6[8:1],6-1[8:1],
3,7,7,2,2,8-3[8:1],,8/2-6[8:1],
,2/5-1b[8:1],,5b/3,,,4/3b,2/6b,
,8/7b,{4}6/2b,{8}3b/4,6b/2,{16},,4,4,
6,7,{8}8-4-6[4:1],3-1[8:1],2,{4}3,{8}8/7b,6/2b,
,4/3b,{4}2/6b,{8}6b/5,3b/7,{16},,5,5,
1,2,{8}3-7[8:1],6b,3b,{4}5bw1[8:1],5,
3x<6[8:1],{8}3,7h[4:1],,8,{4}5<8[8:1],
5-2[8:1],{8}7,6h[4:1],,2,{4}4q8[8:1],
2h[4:1],{8}7,1<6[8:1],,1>4[8:1],,1-6[8:1],
,1-4[8:1],,1-5[8:1],,1,{4}2,
6qq8[8:3],{8}6,2h[8:1],,2,{4}1pp1[4:1],
1,{8}6,6h[4:1],,3,{4}2-6-4-8[2:1],
2,7,6v3[8:1],{8}8,1,
,7-3[8:1],1-5[8:1],7,1,8,{4}6/1bp3[4:1],
6,6,{8}2/5bq7[8:3],2,,2,
,3h[4:1],,7-4[8:1],2-5[8:1],7,{4}2,
8v3>5[4:3],1,{8}1h[4:1],,,1,
,2-8[8:1],7-5[8:1],2,{4}7,4b-8[8:1]*v1[8:1],
4-2-6[4:1],4,{8}8b<3[8:3],8,,3q8[4:1],
,1,,1,2>5[4:1],5,{4}5p1[4:1],
{8}8<5[4:1],8,,3,,3v1[4:1],,,,4,
,4-8[8:3]*-8[8:3],,,{4}2,
,1>3[4:1],3<5[4:1],5<7[4:1],
7>2[4:1],2>5[4:1],5<8[4:1],8b>8[2:1],
,8b>8[2:1],,8b>8[8:3],
,A6f,{8}5,3,{4}6-1[8:1],
6/4b,{8}2-5[8:1],{16}1,1,{8}2-4-8[4:1],8,2,6,
7-3[8:1],1b,{4}2/7,{8}1-5[8:1],8,{4}1v4[8:1]/7v4[8:1],
1b/7b/Cf,{8}2-5[8:1],{16}7,7,{8}2-8[8:1],6,2-6[8:1],7b-4[8:1],
2-4[8:1],7,{4}2,{8}6,5,{4}3-1[8:1]*-7[8:1],
3b/Cf,{8}8-6[8:1],{16}2,2,{8}8-4[8:1],3,8,1-3[8:1]*-4[8:1],
,1b-7[8:1]*-6[8:1],,1b,,,{4}4qq1[8:3],
6,{8}8-5[8:1],8,,2,,3-8-2[4:1],
5,3,{4}A8f,{8}6,5,{4}4/7-1-5[4:1],
3b/7,{8}4v1[8:1],{16}6,6,{8}4,8,7p3[8:1],1-5[8:1],
7,1b,{4}8,{8}3-8[8:1],5,{4}3v5[8:1]/6v1b[8:1],
6b/3b/Cf,{8}7-4[8:1],8,7/2-4[8:1],1,2/7-5[8:1],8,
7b/2-6[8:1],1,{4}2/4,{8}4/5,2/7,{4}1-5[8:1]/8-4[8:1],
1b/8b/Cf,{8}2-5[8:1],{16}1,1,{8}2/7-3[8:1],8,7/2,1-3<4[8:1]*-4[8:1],
,1b-7<6[8:1]*-6[8:1],,1b,,,{4}5qq1[8:3],
7,{8}8-6[8:1],8,,1<8<7<6>5[8:3],,1,
5x<1b[16:5],5h[2:1],{32},,,,,,,,,,,,,,,,5/1,2x/6x,{16}7xh[16:3]/3xh[16:9],,,,,,,,,{8}6>8>4[8:7],
6,6xh[8:7],{1},{32}3x/6x<4V28-6[4:5],
2x,{16}1xh[16:11],,,,,,,,,,,,,,,{4}2x<8<6>5-8b[2:1],
{16},,,,,,,,,,,,3b,4,3,4,
1,8,1,8,5,6,5,6,1,1,{8}1x,{16}6b,5,6,5,
8,1,8,1,4,3,4,3,{32}8,7,{16}6x,{32},,,,2b,3x,{16}4x,{32},,8b,7x,
{8}6x,1bh,{32}7b,6x,{16}5x,{32},,1b,2x,{8}3x,8bh,{32}3b,2x,{16}1x,{32},,7b,6x,
{8}5x,1bh,{32}1b/5b,2x/6x,{16}3x/7x,{32},,2b/6b,3x/7x,{8}4x/8x,3bxh/7bxh,{32}4bx/8bx,1x/5x,{16}6xh[16:1]/2xh[32:1],,,{4}8x<5[8:1],
{8}8,3h[4:1],,2,{4}4-1[8:1],
4xv7[8:1],{8}2,3h[4:1],,7,{4}5p1[8:1],
7h[4:1],{8}2,8>3[8:1],,8<5[8:1],,8-3[8:1],
,8-5[8:1],,8-4[8:1],,8,{4}7,
3pp1[8:3],{8}3,7h[8:1],,7,{4}8qq8[4:1],
8,{8}4,4h[4:1],,6,{4}7-3-5-1[2:1],
7,2,3v6[8:1],{8}1,8,
,2-6[8:1],8-4[8:1],2,8,1,{4}3/8bq6[4:1],
3,3,{8}7/4bp2[8:3],7,,7,
,6h[4:1],,2-5[8:1],7-4[8:1],2,{4}7,
1v6<4[4:3],8,{8}8h[4:1],,,8,
,7-1[8:1],2-4[8:1],7,{4}2,5b-1[8:1]*v8[8:1],
5-7-3[4:1],5,{8}1b>6[8:3],1,,6p1[4:1],
,8,,8,7<4[4:1],4,{4}4q8[4:1],
{8}1>4[4:1],1,,6,,6v8[4:1],,,,5,
,5-1b[8:3],,,{4}7b,
,1>3[4:1],3<5[4:1],5<7[4:1],
7>2[4:1],2>5[4:1],5<8[4:1],8b>8b[2:1],
,8b>8b[2:1],,8b>8b[8:3],
,A6f,{8}6,5,{4}5-8[8:1],
4/5,B7/B6/E7,2-4v5-7b[2:1],7,
{8},,,,6,5,{4}4-1[8:1],
4/5,B2/E3/B3,7-3b[8:1],2-6b[8:1],
8,7,{8}2,3,{4}4-1[8:1],
5/4,{8}7x-3>2[8:1],2x-6<7[8:1],,,,1s5b[8:3],
,6x<1[8:1],,6bx,,,{4}1b-6[8:1]/5b-2[8:1],
1/5,1v4[8:1]/5-8[8:1],1/5,{8}7/3,2/8,
1w5[8:1],2/8,{4}1b,{16}7,5,6,5,{8}7b-1[8:1],7,
2-6[8:1],2,5-8[8:1],5,1>4[8:1],1,6-2[8:1],6,
4-7[8:1],4,1-6[8:1],1,5-2[8:1],5,7-3[8:1],7,
4-1[8:1],4,8-5[8:1],8,{32},,,,1b,2x,{16}3x,{32},,,,8bx/5bx,4x/7x,{16}6x/3x,
{32},,,,1bx/4bx,2x/5x,{16}3x/6x,{32},,,,8bx/5bx-8[8:1],7x/4x,{16}3x/6x,,,,,{8}2b-8[8:1],2,
7-3[8:1],7,4-1[8:1],4,8<5[8:1],8,3-7[8:1],3,
5-2[8:1],5,8-3[8:1],8,4-7[8:1],4,2-6[8:1],2,
5-8[8:1],5,1-4[8:1],1,{32},,,,8b,7x,{16}6x,{32},,,,1bx/4bx,5x/2x,{16}3x/6x,
{32},,,,8bx/5bx,7x/4x,{16}6x/3x,{32},,,,1b/4b,2x/5x,6x/3x,4,5,6,7,8,{8}1,,6h[4:1],
,3h[4:1],,6,7,8xs4[8:3],{4}8,
{8},,,E3/B1/B2/B3/B4,,5xpp5qq5[2:1],,,,,,2h,
2h,2h,7h,8h,
1h,2h,8h,1h,{16}7h,7h,,,{4}4h[2:1],
{8}B8/B7/E7/B6/B5,,,5,3h[4:1],,,6h[8:3],
,,,2h[8:3],E1/B8/B7/B1/B2,,,6h[2:1],
5,4h[4:1],,,5/3,{16}4,4,{4}4w8[4:1],
,,2b/6b,{8}4b-1[8:1],4,
8-5[8:1],8,2-4[8:1],2,5<8[8:1],5,3-5[8:1],3,
6<1[8:1],6,4-8[8:1],4,5-1[8:1],5,2-5[8:1],2,
1<6[8:1],1,2>5[8:1],2,{32},,,,7b,8x,{16}1x,{32},,,,1bx/5bx,8x/4x,{16}7x/3x,
{32},,,,2bx/6bx,3x/7x,{16}4x/8x,{32},,,,5bx/1bx,4x/8x,3x/7x,2x/6x,{4}1bx/5bx,{8}7b-1[8:1],7,
2-6[8:1],2,5-8[8:1],5,1>4[8:1],1,6-2[8:1],6,
4-7[8:1],4,1-6[8:1],1,5>2[8:1],5,7-4[8:1],7,
8>3[8:1],8,7<4[8:1],7,{32},,,,2b,1x,{16}8x,{32},,,,8bx/4bx,1x/5x,{16}2x/6x,
{32},,,,7bx/3bx,6x/2x,{16}5x/1x,{32},,,,4b/8b,5bx/1bx,6bx/2bx,7bx/3bx,{4}8bx/4bx,{8}7,6/5,
,3b/4,{4}1b/8b,{8}2/5b,6b/1b,,7b/8,
{4}4b/5b,{16}3b,4b,{8}3b>2<1<8b[8:1],5b,6bx,7b-4[8:1],1b,
7,3-7[8:1],4b,3b,5bw1[8:1],6b,{4}5,
E
