&title=My Soul, Your Beats!
&artist=VISUAL ARTS/Key Sounds Label/Lia
&first=0.08
&des=奏
&lv_5=13
&inote_5=(145){8},,,,,,,,,,,,7,5h[8:1],6,5h[4:1],,7,,4-1[2:1],,,,,,,,,8,5h[8:1],7,5h[4:1],,6,,4-1[2:1],,,,,,,,,7,5h[8:1],6,5h[4:1],,6,,4-1[2:1]*-1[2:1],,7b,,,,,,,6,5h[8:1],7,5h[4:1],,6h[4:1],,4>8[4:3]*p6[4:3],,,,,,,,,,5,,5,,5h[4:1],,4,,6,6,5,5h[8:3],6,7,8h[4:1],5,4h[4:1],,
{24}1,8,7,6h[4:1],,,,,,
{8}1,2,3h[4:1],,
{8}4,4<1[4:1],,1,,,,3h[8:3],,4,4,,5h[4:1],4,,2h[8:2],4,5,2q6[16:3]*>5[16:3],,,,,7h[8:3],,5,5,,4h[8:2],5,6,3h[8:2],4,5,2h[8:3],4,5,6,7,2>5[4:1],,5<8[4:1],,8>3[4:1],,3qq5[2:1],,6h[2:1],,,,,,7h[4:1],,5>2[4:1],,2<7[4:1],,7<4[4:1],,4qq5[4:3]*>5[4:3],,,,,,,,,,37,,4,4-1[8:1],,5,6,7,8h[8:6],1,2,3h[8:3],,,,,8-5[8:1],8,2,3-7[8:1],,4<1[8:5],4q1[2:1],,,,,,,,,28,7<4[4:1],,4>1[4:1],,1<6[4:1],,6pp4[2:1],,3h[2:1],,,,,,1>4[4:1],,4<7[4:1],,7>2[4:1],,2>5[4:1],,5qq1[2:1],,7h[8:5],,,,,,2h[4:1],,4,35,,47,,56,5/6pp4[2:1],,3h[2:1],,,,,,2h[4:1],,4,53,,7h[8:1]/4h[8:1],,56,7h[8:1]/4h[8:1],,56,7,18,2,
{16}3,5,4,6,5h[8:1],,7,,
{8}7b/5b,6,3-5[8:1]/5-8[8:1],4,,,7-5[8:1],5-8[8:1],,,2>5[8:2],1q6[8:1],,,,,75,6,3-8[8:1]/5-3[8:1],4,,,1-4[8:1],4-2[8:1],,,5,6h[4:1],5h[8:1],,7q4[8:1],3>8[8:1],7b,,5,5-8[8:1],,5-2[8:1],,8-5[8:1],,8-3[8:1],,4-7[8:1],,4,3,2,1>4[8:1],6p8[8:1],,6>3[8:1],,6,7,8,1>3[8:1]*<6[8:1],,1,,5bp8[8:1]/4bq1[8:1],,,,4b/2b,3,64,5,41,3,6-1[8:1]/4-6[8:1],5,,,8<5[8:2],4q1[8:1],,,,,42,3,64,5,41,3,4-1[8:1]/6-4[8:1],5,,,2>5[8:1],6p1[8:1],2,6>7[8:6],5,4b,,,,,,,,2h[8:1],6,3-5[8:1],8-4[8:1],3,,2-5[8:1],7-4[8:1],2,,1-5[8:1],6-4[8:1],1,,1,2,3,4-8[8:1],,5h[4:1],,3qq5[4:3],,6<4[2:1],,,,,,,,,5,7-3[8:1],,2h[4:1],,6pp4[4:3],,3>5[2:1],,,,,,,,,2,2-5[8:1],,7h[4:1],,3qq5[4:5],,6pp4[1:1]*pp4[1:1],,,,
E
