&title=Dèfandour
&artist=BlackY
&first=0.14
&des=Zamykal
&lv_5=14
&inote_5=(154){2},
{16}5,7,5,7,4,6,3,5,
{4}2xV83[2:1],4,5,6,
{16}7V58[2:1],,,,4,,,3,,3,,,2,,2,,
{16}1v4-2[2:1],,,,5,,,6,,6,,7,7,,,,
{16}8-6[8:1],,8,,4,4,,3,B3,,B5,,B7,,B1,,
{8}3xh[16:3]/7xh[16:3],,1h[8:1]/8h[8:1],,2xh[16:3]/6xh[16:3],,3/4,3/4,
{16}1xh[16:3]/5xh[16:3],,,,2-5[8:1]/3,,,,4x<7[8:1],,,4,3x,,3,,
{16}2x,8,,8,1,7,,7,1x,5,1,5,2<4[2:1],6,2,6,
{8}2b,,,,1,8,3x/7x,,
{16}2,4,3,4,1,5,4,5,8,6,1,7h[8:1],,2,1,2,
{16}8,1,8,2,4,3,5,4,7,5,6,2,4,3,8
,,
{8}8-4[8:1],1/7,2x/8x,3,3-8[8:1],4,3x/5x,6,
{16}7-4[8:1],,6,5,7x,,3,,3,4,2bh[8:1],,6,5,7bh[8:1],,
{16}1>4b[8:1],,5,,A1f/6,,7,5,6h[8:1],,4,5h[8:1],,3,4,2,
{16}2h[8:1],,7,8,6h[8:1],,2,1,3/8,,6,5/7,,3,2/4,,
{16}6,5x/6x,,3x/4x,,5x/7x,,2x/4x,,6x/8x,,1x/3x,,8,1,8,
{16}2,4,2,7,5,7,2,6,3,7,4,8,3,7,2,6,
{1}1x/5x<4[4:7],
{8},,,,,,,{16}B7,B6,
{8}B5,,,B2/B3/B4,D7,D8,D1,D2,
{16}D3/Ch[8:5],,,,,,,,,,3,3xh[16:3],,,4,,
{4}2xh[8:1]/5xh[8:1],3h[8:1]/4h[8:1],4h[8:1]/5h[8:1],5h[8:1]/6h[8:1],
{8}4x/7xh[4:1],,8,8,1/8,1,1/2,2,
{16}2x,4,3,5,4x,6,5,6,7x,6,8,6,1x,5,2,4,
{16}3,4,,4,3,,2/5,,3h[8:1],,4h[8:1],,5h[8:1],,6x,,
{4}4/8<5[8:1],3h[4:1],{32}8x,7,6,5,{16},2,,2,8,,
{32}1x/7x,6,5,4,{16},1,,1,7,1h[16:3],{32}6x,5,4,3,{16},1b>4[8:1],,,6,,
{16}6h[16:3],,,8,7,2,1h[8:1],,{32}2x,3,4,5,{16}8,,7,3,7,3,
{16}8-6[8:1],,5,5,8-2[8:1],,3,,8xqq5[8:3],,,,4>1b[8:1],,,,
{4}4b,2/8h[4:1],{32}2x,3,4,5,{16},7,,7,1,,
{32}1x/7x,2,3,4,{16},6,,6,8,6,{32}8x,1,2,3,{24}5x,6x,7x,{16}2,1,2,1,
{16}3/8,,6,5,6,,3,4,3,,7,5,7,,2,4,
{16}3,5,4,6,5,7,8,6,1,5,2,4,3,5,4,6h[16:5],
{2}5b-2[8:1],{24}1/8-4[8:1],7,6,{16},2,8,1,1,,
{24}2/7>2[8:1],6,5,{16},3,7<4[8:1],,4,,{2}3b/7bs3b[4:1],
{24}8x,,,8,7,6,2x/5x,,2x,,2x,,3x/4x-7[8:1],,,2,,,1/4,,,1,2,3,
{16}4/8<5[8:1],,7,1,8,,2,,E3,,,C,,,E7,,
{16}1x/8x,,,3,4,,6,5,7,,3,2/4,,6,5,6,
{16}4/7,,3,4,,2,1,2,8h[8:1],,3,,4/5,,5/6,,
{16}6,5,6,3,4,3,7,7,2,4,2,7,5,7,3,3,
{16}7,5,6,4,5,3,4,2,5,1,7,3,8,4,6,2,
{16}1b/5b,,,,,,B2,B3,E4,,B5/E6,,B6/E7,,B7/E8,,
{16},,B4,B3,B2,B1,B8,B7,B6,B5,B4,,E8,,E7,,
{16},,B1/E1/E2,,,B7/E7/E8,,,B3/E3,,,B5/E5,,,3,,
{16}3h[8:1],,6,5,,6,5,6,A4,A3,A2,A1,{24}D6,A6,D7,A7,D8,,
{16}E3,B3,B4,E5,,,B7/E7,,E1,B1,B2,E3,,,E7/B6,,
{16}2,,,3/4,,4/5,,5/6,,,A7/A8/D8,,,,B2/B1,,
{16}Ch[1:1],,,,,,D4,A3,D3,,,1,,,2,,
{1}2w6b[8:3],
{16}2x/5x,,3,4h[16:9],,3,,E2,,E3,,E4,,6,5,6,
{16}5,,7,5,6,4h[16:11],,E5,,E4,,E3,,1,8,7,
{16}6h[16:15],,3,3,,2,,E1,,E8,,E7,,E6,,B4/E4/E5,
{16},,3/5,,2,4h[16:3],,,2,5,3,7,4,6,2,4,
{16}3h[4:1],,,,5,,2,4,{24}2,3,2,3,2,3,2,3,2,3,2,3,
{24}2,3,2,3,2,3,2,3,2,3,2,3,2,3,2,3,2,3,2,3,2,3,2,3,
{16}1h[16:3],,,8h[16:3],,,7,,,5h[16:3]/6,,,4h[16:3],,,3,
{16},,1h[8:1]/2h[8:1],,,3/8,,,E5,,E7,,E1,,E3,,
{16}4xh[8:1]/6xh[8:1],,,8,1/8,,2,,3xh[8:1]/5xh[8:1],,,7,7,5,6,,
{16}2xh[8:1]/4xh[8:1],,,3,5<8[8:1],4,6,,4xv7[8:1],,,3,3,,2,,
{16}2x,4,3,5,4x,6,5,7,1x,4,3,7,5,6,2,4,
{16}1bs5[8:5],,,,1,,1,,1-5b[8:1],,,,{32}1,Cf,,,,,,,
{16}2,4,3,4,2,1,4,5,8,7,1,8h[8:1],,2,1h[8:1],,
{16}3,8,4,7,5,6,1,8,3,4,3,6,5,6,1,,
{16}2/8,,3,4,,4,3/5,,7,5,6,4,,3,4,,
{16}2,2,4,4,3,5,4,6,5,7,1,8,2x<7[8:1],,3,,
{16}2b/4b,,4,5,3,,1/2,,5,3,6,4,7,5,6h[8:1],,
{16}2,1,2,1,2,4,3h[8:1],,5,,6,5/7,,3,2/4,,
{16}1-5[8:1],,2,6,1b,,7,,8-4[8:1],,4,4,8b,,3,,
{16}2-5[8:1],8,1,7,2b,,6,,4/7,,5/8,,{24}8,7,6,4,3,2,
{16}1-6[8:1]/8-3[8:1],,2/7,,1b/8b,,,,4/5,,4/5h[8:1],,2,4,3,5,
{16}4h[8:1],,7,5h[8:1],,8,6h[8:1],,1,1,3,3,5,5,7,7,
{16}8,,3,3/4,,6,5/6,,2,1,2,7,8,7,1,,
{16}2/8,,6,5/7,,3,2/4,,1/5,,{24}1/5,2/6,3/7,4xp8[8:1]/8xp4[8:1],,,,,,
{32}4b/8b,Cf,{16},,,{4}1>4[8:1]/5<8[8:1],1b/5b,1-6[8:1]/5-2[8:1],
{16}1b>4[8:1]/5b,,,,1/7,,8,,8xh[8:1],,,2xh[8:1]/4xh[8:1],,,5x/6x,,
{16}7x,,6,5/6,,3,3/4,,1x/8x,,2,2/4,,7,5,6,
{16}1x,5,3,8,4,6,2,7,5bs1[16:3],,,,,,,,
{1}B2/B3/B6/B7/Cf/D3/D7,,
{4}2-5[8:1]/5-8[8:1],2x/5x,4>1[8:1]/7<4[8:1],4x/7x,
{16}8w4[8:1],,,,8x,,,,1/7,,2,2,6<4b[8:3],5,7,4,
{16}8bh[4:1],,,,,,7x,,5/6,5/6,,3/4,3/4,,2/5,,
{24}3x,4,3,4,3,4,3,,2/5,,2/5,,{16}3x,4,1,6x,5,8,2x,,
{16}6,5x/6x,,3x/4x,,6x/8x,,1x/3x,,5x/7x,,2x,4,2,4,3,
{16}7,5,5,6,4,4,7,5,8,1,8,1,4,2,4,2,
{16}6b,6,5,7xh[16:3],,,2bh,8,2h,8x,4h,2,6bh,8,2h,6x,
{16}8h,4,2bh,8,4h,6x,8h,4,2bh,8,4h,6xh[16:3],,,5bh[4:1],,
{24},,,7,6,7,6,7,6,7,6,7,6x,5,4,3,2,1,8-4b[8:1],7,6,5,4,3,2/8b,
