&title=Adagio for Summer Wind
&artist=清水淳一/Key Sounds Label
&first=-0.03
&des=LSP
&lv_5=13+
&inote_5=(150)
{4},,,,
3h[4:1],4h[4:1],6h[1:1],,,,,,6h[4:1],5h[4:1],3h[4:1],4h[4:3],,,,,
3h[4:1],6h[4:1],5,5h[2:1],,6,5,4,2q5[1:1],,,,,7h[4:3],,,
6h[4:1],5h[4:1],3h[1:1],4,,,,,
2h[4:1],4,6,5,4h[4:3]/7h[2:1],,,,
56,4,34,25,
{8}1,1,7h[4:3],,,,5,,4,4,,6,5h[4:1],,,,4h[4:1]/6h[4:1],,,,3h[4:1]/5h[4:1],,,
{16}4,5,6,,
{8}2,3,4,6,3,4,5,7,8,2,3,6>4[8:1],,4,3,
2-5[8:1]/4,,
2,,6h[4:1],,5,4,5/3h[4:1],,4,,6>4[8:1],,
4,3,2-5[8:1]/5,,2,,6h[4:1],,5,4,3h[4:1]/7,,4,,26,,3,4,2q5[2:1]/5,,2,,5q8[2:1],,7,7,,,
6>3[4:1],,3>8[4:1],,8<5[4:1],,
4,,3h[4:1],,,,2,
{16}5h[16:1],,,,
{8}4,3,,3<5[8:1],,5,6,
7-4[8:1]/5,,
7,,3h[4:1],,4,5,4/6h[4:1],,5,,3,5,6,7,4h[4:1]/7,,3,,2/5h[4:1],,6,,4,4,7,,28,,3,3,
1b<6[4:1],,5,,3,,6,6,8b>3[4:1],7,,,4,,6,,5b,5p2[1:1],,,8,,,,,,8,,,8,7,6,
5b,3,2,1,6b,4,3,2,7b,5,4,3,
8h[16:1],7h[16:1],6h[16:1],5h[16:1],
3V17[8:3],,6,7V53[8:3],,,
1,8,7>2[4:1],,2>5[4:1],,5<8[4:1],,8>3[4:1],,4,,5h[4:1],,7pp4[2:1],,4b,,
3h,,2h,,1h,,8,8,5V71[8:3],,1,1V35[8:3],,,5V71[2:1],,7V13[2:1],,2,2V46[2:1],,,
5V71[2:1],,7V13[2:1],,2h,,3h,,4h,,5h,6,7,8,
1h[16:1],2h[16:1],3h[16:1],4h[16:1],
6V82[8:3],,3,2V46[8:3],,,
8,1,2>5[4:1],,5<8[4:1],,8>3[4:1],,3<6[4:1],,8,,7h[4:1],,1<3[2:1],,6b,,
8h,,7h,,6h,,1,1h[8:1],3<7[4:1],,7>3[4:1],,3<1[8:3],,7>5[8:3],,3b<3[2:1]*<3[2:1],,
8h,,4h,,1h,,
2V86[4:1],,6V42[4:1],,2V86[4:1],,6V42[4:1],,8b,7,6,5,1b,25,36,47,
8b,5,5,7,1b,4,4,2,2/4b,3/5,46,57,2b,34,45,56,
{16}2,3,4,5,2,3,4,5,3,4,5,6,4,5,6,7,8b>3[8:1],,,,5b<8[8:1],,,,2b>5[8:1],,,,2b,,1,,
{8}8b-6[8:1],,5b-3[8:1]/8-2[8:1],,8bV61[4:1]/5,,8b,2b,
3,3,4,5,1-7[8:1]/6,,1b,5,1-3[8:1]/4b,,
1b-7[8:1]/4-6[8:1],,1V38[4:1]/4b,,1b,6,6h,5h,4h,3h,7b-5[8:1],,7b,1,
2b-5[8:1]/4-7[8:1],,4b/2-7[8:1],,2b-5[8:1],5-3[8:1],2b,6b,
8>3[4:1],,3b<6[4:1],,6b<1[4:1],,1b>4[4:1],,4b,,
{16}1,2,3h[8:1],,4,,5,,2,3,4h[8:1],,6,,7,,
{8}2b-8[8:1],,7/2b-4[8:1],,2b,8,
7b-4[8:1]/5-2[8:1],,5b/7-2[8:1],,7b-4[8:1],4-6[8:1],7b,3b,3,6,2,5,1b,14,25,36,
7b<4[4:1],,4b>1[4:1],,1b<6[4:1],,6b>3[4:1],,3b,2,1,8,
{16}4,5,6,7,1<6[8:1],2,3,4,1b,,4,,53,,7,,5,4,3,2,8>3[8:1],7,6,5,8b,,
7,,6,,5,,8,1,2,3,5>2[8:1],6,7,8,5b,,8b>6[1:1],,,,,,
{8}5,6,7,8,6,7,8,1,7,8,1,2,
{16}8,7,6,5,2,3,4,5,7,6,5,4,1,2,3,4,5b/8,1,2,3,4/8b,5,6,7,8/4b,1,2,3,84,,,,
{4}6p4[4:3],,,,2q5[4:3],,,,7pp4[4:3],,,,3b-6[1:6],
