&title=恋×蜜Distance
&artist=岬/PCゲーム「Honey*Honey*Honey!」OPテーマ
&first=6.67
&des=
&wholebpm=138
&demo_seek=59.6
&demo_len=13
&des_5=Ragna
&lv_5=12+
&inote_5=(138){4}
2b/7b,,4-1[8:1]/5-8[8:1],45,
7h[2:1],,6h[2:1],,
5h[2:1],,4h[2:1],,
1h[2:1],,2h[2:1],,
3h[2:1],,{16}4,,,4,5,,4,,{4}
3-8[8:1]/6,4,6-1[8:1]/3,5,
3-8[8:1]/7,4,6-1[8:1]/2,5,
3-8[8:1]/8,4,6-1[8:1]/1,5,
3qq5[16:7]/6pp4[16:7],,,,
5pp8[8:3]/4,,4-1[8:1],4,{16}
6,,6,5,6,5,,7,,7,4,,5,,5,,
3,,3,4,,4,,1,,1,8,,2,,{64}2h[64:13],,,,,,,,
,,,,,3h[64:13],,,,,,,,,,,,,4h[64:13],,,,,,,,,,,,,5h[64:13],,,,,,,,,,,,,
6h[64:13],,,,,,,,,,,,,7<2[16:3],,,,,,,
{2},{24}1,8,1,8,1,8,1,8,1,8,1,8,
{1}1pp5[2:1],8qq4[2:1],
1pp4[2:1],{4}8qq5[2:1],,1-4[8:1],1,
5^8[8:1],4h[4:1],{16}1,2,1,,{4}38,
4^1[8:1],5h[4:1],{16}8,7,8,,{4}16,
5^8[8:1],4h[4:1],{16}1,2,1,,38,,,,
4h[8:1]/5h[8:1],,,3h[8:1]/6h[8:1],{8},27,1-5[8:1]/8-4[8:1],,18,,
3q4[4:1]/6,,,5,5-8[8:1],,4,,
7q8[4:1]/2,,,1,1-4[8:1],,8,,
3qq4[4:1]/6,,,5,5^8[8:1],,4,,
7qq8[4:1]/2,,,1,1^4[8:1],,8,,
{16}36,,4,5,4,,6,5,7h[8:1]/4h[8:1],,,8h[8:1]/3h[8:1],,,12,,
,,5,4,5,,3,4,2h[8:1]/5h[8:1],,,1h[8:1]/6h[8:1],{8},78,
7/8^3[8:1],,,6,5,4,3,2,
1>8[2:1]/8<1[2:1],,,,,,,,
1h[8:1]/8h[8:1],{16},2h[8:1]/7h[8:1],{8},36,4-1[8:1]/5-8[8:1],,45,,
2b-5[8:1],{16}1h[16:1],,{8}2,6,7b-4[8:1],{16}8h[16:1],,{8}7,3p8[16:5],
4,5,6,7h[2:1],,1,2,3-7[8:1],
,6,5-2[8:1]*-8[8:1],,5,,1,28,
3h[8:1]/7h[8:1],{16},4h[8:1]/6h[8:1],{8},5v3[8:1]*v7[8:1],,,,46,
5-7[8:1]*-8[8:1],,5-3[8:1]*-2[8:1],,5,,1-6[8:1]*-7[8:1],1,
1-3[8:1]*-4[8:1],,1,,5h[16:3],{16},6h[16:3],{8},7,
7-2[8:1],,,3,3-6[8:1],,,7,
7p2[8:1],,,,1^4[8:1]/8^5[8:1],,18,,
6b^1[8:1],{16}5h[16:1],,{8}6,2,3b^8[8:1],{16}4h[16:1],,{8}3,7pp4[16:5],
8,1,2,3h[2:1],,5,6,7-3[8:1],
,,1^4[8:1]*^6[8:1],,1,,5,64,
3h[8:1]/7h[8:1],{16},2h[8:1]/8h[8:1],{8},1qq7[8:1]*pp3[8:1],,,,82,
1^3[8:1]*-4[8:1],,1^7[8:1]*-6[8:1],,1,,5-2[8:1]*^3[8:1],5,
5^7[8:1]*-8[8:1],,5,,1h[16:3],{16},2h[16:3],{8},3,
3^6[8:1],,,7,7^2[8:1],,,,
3pp6[16:7],,,,,,,,
8h[2:1],,,,1b^3[8:1]*^7[8:1],,1b,,
{1}6b<5[2:3]/4b>5[2:3],,E
