&title=Ravings
&artist=HOYO-MiX
&first=1.6
&des=Aza
&lv_5=13+
&inote_5=(135)
{16}6h[8:1],,,4h[8:1],,,{4}5h[2:1],4h[8:1],{8}4h[8:1],{16},6,4,,,3,5,,,6,4,,,4/6,{32}E7,B7,B8,E1,{4}2hx[8:1],2h[8:1],{8}2h[8:1]/4,5,2h[8:1]/6,,2h[8:1],1,2h[8:1]/8,,2h[8:1]/7,6,3x-5[8:1]/5x,3x/5x,
{16}7b,,6,6,3,,2/6,,7,7,3,,{8}2/8<5[8:1],1x,4/8>3[8:1],3,4/8,5,{16}6-4[8:1],4,7,3,6,,2,,3,4,3,,6v4[8:1],5,7q3[8:1],,6xqq8b[4:1],,7x,,{8},,1,{16}2,4,3,,7,5,6-2[8:1]*-1[8:1],,4x,,{4}6b,
{8}3/4-6[8:1],8,4-2[8:1]/7h[4:1],,{16}4-7[8:1],8,{8}8,4-1[8:1]/3,,4-6[8:1]/6,7,4-2[8:1]/2,,{16}4-7[8:1],6,6,,{8}4v1[8:1]/3,2b,{4}4v7[8:1]/8,4>1[8:1]/3,{8}4<7[8:1]/8,7,4/8,,{16}2,1,3,8,{8}1pp5[8:3],2/6,E7,E8,A8f,,
{4}4h[2:1]/E6h[8:1],D7h[8:1],E8h[8:1],{8}D1h[8:1],C,{4}E2h[8:1]/5h[2:1],D3h[8:1],E4h[8:1],{8}D5h[8:1],C,{4}E6h[8:1]/3h[8:1],D7h[8:1]/3h[8:1],E8h[8:1]/3h[8:1],D1h[8:1]/3-1-7-5-3[16:11],3/2-8-6-4-2b[2:1],,{2},
{16}4h[8:1]/7b,,,6,{8}5,5,4/6-3[8:1],5/7,4/6,2,2/5h[8:1],{16},3,{8}4,4,3-5[8:1]/5,2/6-1[8:1],3,6,2b,{16},2,{8}8,1/7,2/8,1/6,3>8[8:1]/8,1/5,{4}3b/7<4[8:1],1s5[8:3]/7b,2-6b[8:1],,
{8}3h[8:1]/8-2[8:1],5,7p3[8:1]/8,7,8v2[8:1],8,6>3[8:1],6,1,8,1v3[8:1]/7,1,8p4[8:1],8,2h[4:1],,1p3[8:1],3,1/2v4[8:1],2,5V71[8:1],5,3,3,2,3,4/8-4[8:1],7p3[8:1],8,7,B2/B3/E3f/D3,,
{8}6/5bx-1[8:1],4/8,5bx-2[8:1]/6,7,{16}5bx-1[8:1],6,{8}6,5bx-2[8:1]/2,4,8/5bx-1[8:1],7,5bx-2[8:1]/3,2,{16}5bx,8,8,,{4}1b-6[8:1]/7b,{8}1bx-5[8:1]/3,2,1bx<6[8:1]/7,6-2b[8:1],1bx,,8x,1/5,{16}3,4,2,5,{8}1-5[8:1],6-2[8:1],1b<3[4:1],6b,1b,,
{16}7,8,6,1,8,1,7,2,1w5[8:1],,3/7,,{4},{16}2,4,3,5,4,6,5,7,4w8b[8:1],,4,,{4},{16}6,3,5,2,7,4,6,3,{8}8p3[8:1],8,1,2x,{16}5,1,6,2,{8}7,4/8-5b[8:1],4-1[8:1]/8,,4b,,
{8}5-3[8:1]/6h[8:1],2,1,2,3h[8:1]/4-6[8:1],7,8,7,5-1[8:1]/6h[8:1],2,1,2,3h[8:1]/4-7b[8:1]*-8[8:1],7,,,1-7[8:1]/2h[8:1],6,5/1-3[8:1],6,1-5[8:1]/5,4,1/5,6,4/7h[4:1],{16}1,2,{8}3h[8:1],8x,4/7,3/6,2/5-8[8:1],,
{4}5bpp1[2:1]/2v3-5[2:1],,,{8},8x,{4}3xqq8[2:1]/7xv6-4[2:1],,,{8},1x,{4}2hx[8:1]/6x-8[8:1],6/2h[8:1],2h[8:1]/1-5[8:1],{8}2/1,3,4-2[8:1]/6,5-1[8:1]/7,4V68[4:1]/6,,,8,1bv3[8:1],,
{8}1p4[8:1]/2h[8:1],,1<6[8:1]/2,2,1/2,2,8v6[8:1]/2,1,7h[8:1]/8q5[8:1],,7/8>3[8:1],7,7/8,7,7/1,4x/5x,3b<6[8:1]/8h[8:1],,3q7[8:1]/8,8,3/8,8,1<6[8:1]/2,8,3v1[8:1],2,4-7[8:1],5,8-4b[8:1],2,1<1<1[4:3]/8,,{4}Cf,,,5-7[8:1],{8}4-8[8:1],3,5-1[8:1],6,2,3,4/8-4[8:1],,4/8b,,4h[16:1]/5,4h[16:1]/6,4h[16:1]/7,4h[16:1]/8,4h[16:1]/1p3b[8:1],2-7[8:5]/4h[16:1],{4},,,3h[4:1],4hb[2:1],5,5-3[8:1]*-7[8:1],,
{16}2-4[8:1],7,1,5,2,6,6,,2-5[8:1],5,1,7,2,,6,,2-6[8:1],7,1,5,2,8,8,,{8}2-7[8:1]/1,3/4,6h[4:1]/2,,{16}8,7,1,8,{8}2-6[8:1],8-3[8:1],2b>5[8:1],8b,2b,,
{8}7-4[8:1]/8,1/5,7/8,2,{16}3-8[8:1],5,1-5[8:1],7,3b,,,,{8}2-5[8:1],8/4,2/1,7,{16}6-1[8:1],4,8-4[8:1],2,6b,,,,{8}7,3/5,2/4<7[8:1],,4/8-4[8:1],1,2h[4:1]/8,,{16}6,5,7,4,{8}8-4[8:1],2-5[8:1],8b>3[8:1],2b,8b,{32},4x,5x,6x,
{8}7x/A1/B1f/E1/E2/B8/B2,,4/6-4[8:1],7,{16}6-1[8:1],2,{8}2,3/6-4[8:1],3,6-1[8:1],2-5[8:1],4/6,2,{16}7-4[8:1],3,{8}3,7b,2,1<6>2b[4:1]/8,6>2[8:1],6,,8-4[8:1]*-3[8:1],6,8,,{16}2>5[8:1],5,1,6,{8}2-6[8:1],8-4[8:1],2b<7[8:1],8b,2b,,5b-1[8:1]/6b,4/7,2h[4:1]/5,,{16}8>3[8:1]*<5[8:1],1,7,,{4}8,{8}4-8[8:1],1/7,2h[4:1]/4,,{16}7<4[8:1]*>2[8:1],8,6,,{4}7,{8}3-6[8:1],2/8,3/7h[4:1],,5,4/6,3h[4:1]/5,,{16}6,5,7,4,{8}6pp2[8:3],5x/1x,2b,3b,4hb[8:19],,{4},,,,,,{8}B4,E4,,,,Cf,
