&title=Mermaid festa vol.1
&artist=μ's
&first=0
&des=luvlily
&des_5=luvlily
&lv_5=13
&inote_5=(127){1},
{24}3,8,2,7,1,6,2,7,3,8,2,7,1,,2,,3,,45,,6,,7,,
{12}1b/8b,,,2,2,13,
{16}4,6,,1,7-4[8:1],,7,3-8[8:1],,,,,,,5w1[8:1],
,,,,,,,2,1,2,,4,8,,2,6,,7,8,7,,34,34,,,
{16}1/8h[16:6],,,6,,,4,,3h[16:6],,,1,,,7,,2,2,6,6,,37,,18,,,,,
{24}27,,,8-4[8:1],1,8,1,,,
{16},2,,,
{8}3,1-5[8:1],
{16},8,,,
{8}6,8-4[8:1],
{16},1,,,2,,3,3,7,7,,,
{16}1-5[8:1],8,1,,
{16},6,,,
{8}7,7-3[8:1],
{16},1,,,
{8}2,
{16}1,1,,2,,3,,4,,3,7,2,6,1,5,8-4[8:1],6,,
,8,,,7-3[8:1],,3,,,2,,,1-5[8:1],,7,,,6,,,36,,7,7,2,2,,,
{16}7-3[8:1],8,7,,
{16},8,,,2-6[8:1],,1,,,8,,,5,,4,,35,35,,2,,1,
{16},78,16,,34,25,,,18,,7p4[4:1],1,,,4,,3,,2,
2q5[4:1],,,5,,5,,6,6q1[4:1],,,4,,3,,,4,4,,,,
1pp5[4:1],,,8,8,,7,,6,,5pp1[4:1],,4,4,,,
3,,,2pp6[4:1],2,,1,,1,,8,,8,,
{24}2q5[4:1],8,2,
{16}8,,6,7,,,8-4[8:1],8,2,,3,3,,,1,2,3,,2,3,4q1[8:1],,,7p2[8:1],4,,,7,1,,,,
4,5,4,5,3,3,7,7,2,2,6,6,1-5[8:1],1,5V73[4:1],5,1,,,,,,,,
7h[8:2],,,,2h[4:1],,,,8h[4:1],,,3,4,,3,,25,,
{24}7z3[16:3],1,7,8,,,,,,
{16}2h[4:1],,,5,6,,6,,74,,
{24}2s6[16:3],8,2,1,,,,,,
{16}7h[8:1],,,3h[8:1]/5h[8:1],,,4h[8:1]/6h[8:1],,,,
{24}8,2,8,1,,,
{16},7,5b/6b,,,2,3b/4b,,,18,2bz6[8:1]/7bs3[8:1],,,,,,,,
1h[16:2]/2h[16:2],,,3h[16:2]/8h[16:2],,,26,,7h[16:2]/8h[8:1],,,2,,5,45,,
8h[16:2]/7h[16:2],,,6h[16:2]/1h[16:2],,,73,,2h[16:2]/1h[8:1],,,7,,4,54,,
8,7,1,2,,,6,2,8,3,6,4,5,3,6,2,
{48}7b,,,7,,,7,,,1b,,,1,,,1,,,3b,,,3,,,3,,,5b,,,5,,,5,,,
{16}7,2,6,3,8,8,1,1,1b>4[8:1]*<6[8:1],,,,1bw5[8:1],,,,1b,,
{24},,1,8,1,8,
{16},2-5[8:1],
{16},,6,2,6,,,45,45,,2,8,1,,7,7,,4,7,56,56,,,12,12,,
7qq3[4:1],3,7,,2,2,,,1pp5[4:1],1,5,,6,6,,,7,7,3,6h[8:1],,2,8,4,6,1,7,3h[8:1],,,,
8p4[8:1],1,8,,,2,2,,5,2,34,34,,,78,78,,2,6,3h[8:1],,7,2h[16:3],,,6,1h[4:1],,,
5,5,,,
{16}2,2>5[8:1],7,,8,2,,,
{16}7,7<4[8:1],3,,1,1,,,2,2,7,3,7,3,6,2,6,2,
5,5,1,1,6,6,2,2,1h[8:1]/8h[8:1],,,2,3h[8:1]/7h[8:1],,,26,1h[8:1]/5h[8:1],,,
48,26,,7,3,7h[8:1],,,48,3h[8:1]/7h[8:1],,,26,1h[8:1]/5h[8:1],,,26,18,,4,5,4,,
36,,45,,27,1h[16:3]/8h[16:3],,,,2,7,3,6,4,5,,27,,18,,36,4h[16:3]/5h[16:3],,,,,
16,,27,,4h[8:3]/1,,8,7,,,6,,5h[8:3],,8,1,,,2w6[8:1],,2b,2b,,,,,
4b/8,4/8b,,{48},{144},
{16},,46,,37,,28,,1b,1bw5[16:7],,,,,,,,,,,,,
{144},,,,,
{16}4,6,4,6,3,7,3,7,,1b/8b,,1b/8b,,,,,
5,4,5,4,6,3,7,4,5,4,6,2,6,4,7,4,
{16}6,3,5,1,5,3,8,3,5,4,6,5,8,2,5,4,
{16}7,1,4,3,7,8,6,4,8,1,5,8,6,4,8,2,
{16}5,3,1,3,5,8,6,2,8,3,6,8,,,1b/8b,,
{12}1,5,3,8,4,6,8,4,2,1,5,7,8,6,2,8,4,6,1,6,4,7,2,
{12}7,
{16}18,1,1,1,1,1,1,1,1,1,1,1,1,1,18,,27,27,27,1-4[8:1]/8-5[8:1],,18,,18,,,,,
36,36,36,4-1[8:1]/5-8[8:1],,45,,45,,,,,,,,,,,{12},
{24}8p3[8:1],1,8,,,2,,
{16},1,,2,2,,,45,45,,
1q6[8:1],7,1,,
8,8,,7,7,4,4,,,12,12,,
8qq4[4:1],4,8,,3,3,,,2pp6[4:1],2,6,,7,7,,,8,8,3,3h[8:1],,7,7,4,4,5,5,1h[8:1],,,,
5,6,7,18,1,1,1,1,1,1,1,15,1,1,16,1,1,17,,82,8,8,8,8,8,8,8,48,8,8,
83,8,8,28,2,1h[8:1]/3,,{32}8,7,6,5,{16}4b/8b,,6,6,5h[8:1]/7,,{32}4,3,2,1,{16}4b/8b,,6,6,5,5,1,1,2,2,6,6,
1,2,5,6,3,3,7,7,1h[8:1]/8h[8:1],,,26,3h[8:1]/7h[8:1],,,26,1h[8:1]/5h[8:1],,,
48,26,,7,3,7h[8:1],,,48,7h[8:1]/3h[8:1],,,26,1h[8:1]/5h[8:1],,,26,48,,7,3,7,,
26,,37,,15,8h[16:3]/4h[16:3],,,,1,7,2,6,3,5,,17,,35,,26,4h[16:3]/8h[16:3],,,,,
16,,27,,4h[8:3]/1,,8,7,,,6,,5h[8:3],,8,1,,,3w7[8:1],,3b,3b,,,,,1bw5[8:1]/5,1/5b,,,,,,,
{24}7<4[8:1],3,7,3,,,
{16},2,1-4[8:1],,
{8}25,1v6[8:1],
{16},8,1/7-3[8:1],,
{8}8,1v4[8:1]/7,
{16},2,1,,7-5[8:1],,3,3,2-5[8:1],2,,,
{16}6-3[8:1],6,6,,
{16},2,1v6[8:1],,
{8}5,7p3[8:1]/1,
{16},8,7,,
{8}1,
{16}8,1,,24,,57,,18,{24}4,5,4,5,4,5,3,6,3,6,3,6,
{16}2h[16:3]/7,,
8,8,,,1q6[8:1]/6,,27,,1,7,,,8p3[8:1]/3,,27,,8,2,,,26,,5,45,3,34,,,
{16}7qq3[4:1],8,7,,
{16},8,1,,2pp6[4:1],,25,,,1,8,,7,,
{24}2,5,3,6,4,7,3,6,4,5,3,6,
{32}2,7,2,7,2,7,2,7,1,8,1,8,
{48}2,3,4,6,7,8,
{12}1b/2b,,,2,2,48,
{16}6,57,,1,7-4[8:1]/2,,5,3-8[8:1]/7,,,,,,,5bw1[8:1],
,,,,,,,2,2,2,,5,47,,1,38,,7,7,7,,34,34,,,
{16}1/8h[16:6],,7,6,,5,4,,3h[16:6],,2,1,,8,7,,
{48}2/6b,,,7b,3,,,,4,,,,5,,,,6,,3b,,7,4b,,,8,,,,1,,,,2,,,,3/7b,,,8b,4,,,,5,,,,
{32},,,,,,,,15,26,37,48,,,15,48,37,2-6[12:1]/6-2[12:1],,,,,,,,,,,,,,,
{16}1bs5[16:1]/8bz4[16:1],6b/5b,4b/3b,1b/8b,,,,,,,,,E
